Game of Thrones (2019) Temporada 8 AMZN 1080p Latino

8.226 vistas
1 estrella2 estrellas3 estrellas4 estrellas5 estrellas (18 votos, promedio: 5,00 de 5)
Cargando…

Información de Game of Thrones (2019) Temporada 8 AMZN 1080p Latino

Datos de la película

  • Calidad: WEBDL
  • Audio: Español Latino AC3 2.0 Capturado- Ingles AC3 5.1 AMAZON
  • Subtitulos: Español Latino SRT- FORZADOS SRT
  • Resolución: 1920x1080
  • Formato: MKV
  • Codec: H.264
  • Encoder: GoT
  • Mediainfo: Clic para Mostrar Datos Ver
  • Game of Thrones T08E01 AMZN WEB-DL Latino.mkv
    Format                      : Matroska
    Format version              : Version 4
    File size                   : 2.92 GiB
    Duration                    : 55 min 47 s
    Overall bit rate            : 7 489 kb/s
    Movie name                  : CinemaniaHDD.Net
    Encoded date                : UTC 2019-04-15 02:43:49
    Writing application         : mkvmerge v22.0.0 ('At The End Of The World') 64-bit
    Writing library             : libebml v1.3.5 + libmatroska v1.4.8

    Video
    ID                          : 1
    Format                      : AVC
    Format/Info                 : Advanced Video Codec
    Format profile              : [email protected]
    Format settings             : CABAC / 4 Ref Frames
    Format settings, CABAC      : Yes
    Format settings, ReFrames   : 4 frames
    Codec ID                    : V_MPEG4/ISO/AVC
    Duration                    : 55 min 45 s
    Bit rate mode               : Constant
    Bit rate                    : 6 596 kb/s
    Nominal bit rate            : 10 000 kb/s
    Width                       : 1 920 pixels
    Height                      : 1 080 pixels
    Display aspect ratio        : 16:9
    Frame rate mode             : Constant
    Frame rate                  : 23.976 (24000/1001) FPS
    Color space                 : YUV
    Chroma subsampling          : 4:2:0
    Bit depth                   : 8 bits
    Scan type                   : Progressive
    Bits/(Pixel*Frame)          : 0.133
    Stream size                 : 2.57 GiB (88%)
    Title                       : CinemaniaHDD.Net
    Default                     : Yes
    Forced                      : No
    Color range                 : Limited
    Color primaries             : BT.709
    Transfer characteristics    : BT.709
    Matrix coefficients         : BT.709

    Audio #1
    ID                          : 2
    Format                      : AC-3
    Format/Info                 : Audio Coding 3
    Commercial name             : Dolby Digital
    Codec ID                    : A_AC3
    Duration                    : 55 min 45 s
    Bit rate mode               : Constant
    Bit rate                    : 256 kb/s
    Channel(s)                  : 2 channels
    Channel layout              : L R
    Sampling rate               : 48.0 kHz
    Frame rate                  : 31.250 FPS (1536 SPF)
    Bit depth                   : 16 bits
    Compression mode            : Lossy
    Stream size                 : 102 MiB (3%)
    Title                       : CinemaniaHDD.Net
    Language                    : Spanish
    Service kind                : Complete Main
    Default                     : Yes
    Forced                      : No

    Audio #2
    ID                          : 3
    Format                      : AC-3
    Format/Info                 : Audio Coding 3
    Commercial name             : Dolby Digital
    Codec ID                    : A_AC3
    Duration                    : 55 min 45 s
    Bit rate mode               : Constant
    Bit rate                    : 640 kb/s
    Channel(s)                  : 6 channels
    Channel layout              : L R C LFE Ls Rs
    Sampling rate               : 48.0 kHz
    Frame rate                  : 31.250 FPS (1536 SPF)
    Bit depth                   : 16 bits
    Compression mode            : Lossy
    Stream size                 : 255 MiB (9%)
    Title                       : CinemaniaHDD.Net
    Language                    : English
    Service kind                : Complete Main
    Default                     : No
    Forced                      : No

    Text #1
    ID                          : 4
    Format                      : UTF-8
    Codec ID                    : S_TEXT/UTF8
    Codec ID/Info               : UTF-8 Plain Text
    Duration                    : 1 min 38 s
    Bit rate                    : 79 b/s
    Count of elements           : 27
    Stream size                 : 979 Bytes (0%)
    Title                       : Forzados - CinemaniaHDD.Net
    Language                    : Spanish
    Default                     : Yes
    Forced                      : Yes

    Text #2
    ID                          : 5
    Format                      : UTF-8
    Codec ID                    : S_TEXT/UTF8
    Codec ID/Info               : UTF-8 Plain Text
    Duration                    : 55 min 41 s
    Bit rate                    : 45 b/s
    Count of elements           : 665
    Stream size                 : 18.4 KiB (0%)
    Title                       : SDH - CinemaniaHDD.Net
    Language                    : English
    Default                     : No
    Forced                      : No

    Text #3
    ID                          : 6
    Format                      : UTF-8
    Codec ID                    : S_TEXT/UTF8
    Codec ID/Info               : UTF-8 Plain Text
    Duration                    : 52 min 44 s
    Bit rate                    : 39 b/s
    Count of elements           : 490
    Stream size                 : 15.3 KiB (0%)
    Title                       : CinemaniaHDD.Net
    Language                    : Spanish
    Default                     : No
    Forced                      : No

    Menu
    00:00:00.000                : en:Ratings
    00:00:03.944                : en:Previously On
    00:01:59.944                : en:Studio Logo
    00:02:05.944                : en:Opening Credits
    00:03:52.944                : en:Arrival in Winterfell
    00:09:46.944                : en:Fight together or die
    00:12:53.944                : en:Sansa sees through the lies
    00:15:36.944                : en:A tearful reunion
    00:17:45.944                : en:A queen must be earned
    00:22:40.944                : en:Cersei asks a favor of Bronn
    00:25:25.944                : en:What is dead may never die
    00:29:24.944                : en:Hold on to whatever you can
    00:36:41.944                : en:A forge for dragonglass
    00:39:11.944                : en:Sansa is frustrated with Jon's choice
    00:41:03.944                : en:The head of House Tarly
    00:44:32.944                : en:It's time for Jon to know the truth
    00:48:40.944                : en:A message from the Night King
    00:52:28.944                : en:An unexpected visitor
    00:53:43.944                : en:End Credits
    00:55:03.944                : en:Next Time
    00:55:40.944                : en:Inside Game of Thrones

  • Peso: 2.92 GiB

Sinopsis

Siete familias nobles luchan por el control de la tierra mítica de Westeros. La fricción entre las casas conduce a la guerra a gran escala. Todo mientras un mal muy antiguo despierta en el norte más lejano. En medio de la guerra, una orden militar descuidada de inadaptados, la Guardia de la Noche, es todo lo que se interpone entre los reinos de los hombres y los horrores de hielo más allá.

2 Episodios Agregados

Ficha técnica

Video trailer de la película

Enlaces de descarga

Rip de Bluray

Descargar Game of Thrones (2019) Temporada 8 AMZN 1080p Latino




Aportes de DPeliculasHDmega la pass es:dpeliculashdmega.org Aportes de CinemaniaHD la pass es:cinemaniahdd.com

Películas relacionadas

Comentarios 8
  • Marwyn - 22 abril, 2019

    Gracias!!

  • Walter - 22 abril, 2019

    Excelente aporte… Muchas gracias

  • Eberth Torres - 22 abril, 2019

    Es latino y ingles subtitulado ???

  • Angel - 22 abril, 2019

    Muchísimas gracias, es muy buena su pagina.

  • Oscar Piscoya - 15 abril, 2019

    Por favor cada que salga un nuevo capítulo, súbanlo independientemente. Gracias por el aporte.

  • Julio César - 15 abril, 2019

    Muchas gracias por el aporte! Saludos desde la CDMX

  • Her bre - 15 abril, 2019

    Excelente, Gracias, La mejor Serie de todos los tiempos…..