Game of Thrones (2019) Octava Temporada HBO WEB-DL 1080p Latino

32.304 vistas
1 estrella2 estrellas3 estrellas4 estrellas5 estrellas (50 votos, promedio: 4,20 de 5)
Cargando...

Información de Game of Thrones (2019) Octava Temporada HBO WEB-DL 1080p Latino

Datos de la película

  • Calidad: 1080p
  • Audio: Español Latino AC3 2.0 - Ingles AC3 5.1 HBO
  • Subtitulos: Español Latino SRT- FORZADOS SRT
  • Resolución: 1920x1080
  • Formato: MKV
  • Codec: H.264
  • Encoder: cinemaniahdd
  • Mediainfo: Clic para Mostrar Datos Ver
  • Game of Thrones T08E06 HBO WEB-DL 1080p Latino [CNMNHDD].mkv
    Format                      : Matroska
    Format version              : Version 4
    File size                   : 4.94 GiB
    Duration                    : 1 h 18 min
    Overall bit rate mode       : Variable
    Overall bit rate            : 8 997 kb/s
    Movie name                  : Game of Thrones T08E06 - The Iron Throne [CNMNHDD]
    Encoded date                : UTC 2021-10-16 02:43:35
    Writing application         : mkvmerge v59.0.0 ('Shining Star') 64-bit
    Writing library             : libebml v1.4.2 + libmatroska v1.6.4

    Video
    ID                          : 1
    Format                      : AVC
    Format/Info                 : Advanced Video Codec
    Format profile              : High@L4
    Format settings             : CABAC / 4 Ref Frames
    Format settings, CABAC      : Yes
    Format settings, Reference  : 4 frames
    Codec ID                    : V_MPEG4/ISO/AVC
    Duration                    : 1 h 18 min
    Bit rate mode               : Variable
    Bit rate                    : 8 250 kb/s
    Maximum bit rate            : 12.4 Mb/s
    Width                       : 1 920 pixels
    Height                      : 1 080 pixels
    Display aspect ratio        : 16:9
    Frame rate mode             : Constant
    Frame rate                  : 23.976 (24000/1001) FPS
    Color space                 : YUV
    Chroma subsampling          : 4:2:0
    Bit depth                   : 8 bits
    Scan type                   : Progressive
    Bits/(Pixel*Frame)          : 0.166
    Stream size                 : 4.51 GiB (91%)
    Title                       : CinemaniaHDD
    Writing library             : x264 core 157 r2965 861cec4
    Encoding settings           : cabac=1 / ref=4 / deblock=1:0:0 / analyse=0x3:0x113 / me=hex / subme=7 / psy=1 / psy_rd=1.00:0.00 / mixed_ref=1 / me_range=16 / chroma_me=1 / trellis=1 / 8x8dct=1 / cqm=0 / deadzone=21,11 / fast_pskip=1 / chroma_qp_offset=-2 / threads=34 / lookahead_threads=5 / sliced_threads=0 / nr=0 / decimate=1 / interlaced=0 / bluray_compat=0 / constrained_intra=0 / bframes=3 / b_pyramid=2 / b_adapt=1 / b_bias=0 / direct=1 / weightb=1 / open_gop=0 / weightp=2 / keyint=96 / keyint_min=96 / scenecut=40 / intra_refresh=0 / rc_lookahead=40 / rc=2pass / mbtree=1 / bitrate=8250 / ratetol=1.0 / qcomp=0.60 / qpmin=0 / qpmax=69 / qpstep=4 / cplxblur=20.0 / qblur=0.5 / vbv_maxrate=12375 / vbv_bufsize=6187 / nal_hrd=vbr / filler=0 / ip_ratio=1.40 / aq=1:1.00
    Default                     : Yes
    Forced                      : No
    Color range                 : Limited
    Color primaries             : BT.709
    Transfer characteristics    : BT.709
    Matrix coefficients         : BT.709

    Audio #1
    ID                          : 2
    Format                      : AC-3
    Format/Info                 : Audio Coding 3
    Commercial name             : Dolby Digital
    Codec ID                    : A_AC3
    Duration                    : 1 h 18 min
    Bit rate mode               : Constant
    Bit rate                    : 384 kb/s
    Channel(s)                  : 2 channels
    Channel layout              : L R
    Sampling rate               : 48.0 kHz
    Frame rate                  : 31.250 FPS (1536 SPF)
    Compression mode            : Lossy
    Stream size                 : 216 MiB (4%)
    Title                       : Español latino [CinemaniaHDD]
    Language                    : Spanish
    Service kind                : Complete Main
    Default                     : Yes
    Forced                      : No

    Audio #2
    ID                          : 3
    Format                      : AC-3
    Format/Info                 : Audio Coding 3
    Commercial name             : Dolby Digital
    Codec ID                    : A_AC3
    Duration                    : 1 h 18 min
    Bit rate mode               : Constant
    Bit rate                    : 384 kb/s
    Channel(s)                  : 6 channels
    Channel layout              : L R C LFE Ls Rs
    Sampling rate               : 48.0 kHz
    Frame rate                  : 31.250 FPS (1536 SPF)
    Compression mode            : Lossy
    Stream size                 : 216 MiB (4%)
    Title                       : Inglés [CinemaniaHDD]
    Language                    : English
    Service kind                : Complete Main
    Default                     : No
    Forced                      : No

    Text #1
    ID                          : 4
    Format                      : UTF-8
    Codec ID                    : S_TEXT/UTF8
    Codec ID/Info               : UTF-8 Plain Text
    Duration                    : 1 h 16 min
    Bit rate                    : 32 b/s
    Count of elements           : 879
    Stream size                 : 18.1 KiB (0%)
    Title                       : Español latino [CC] [CinemaniaHDD]
    Language                    : Spanish
    Default                     : No
    Forced                      : No

    Text #2
    ID                          : 5
    Format                      : UTF-8
    Codec ID                    : S_TEXT/UTF8
    Codec ID/Info               : UTF-8 Plain Text
    Duration                    : 1 h 16 min
    Bit rate                    : 28 b/s
    Count of elements           : 819
    Stream size                 : 16.2 KiB (0%)
    Title                       : Inglés [CC] [CinemaniaHDD]
    Language                    : English
    Default                     : No
    Forced                      : No

    Menu
    00:00:06.714                : Intro

     

  • Peso: 4.94 GiB Aprox ---- 27 GiB in 6 Chapters.

Sinopsis

Siete familias nobles luchan por el control de la tierra mítica de Westeros. La fricción entre las casas conduce a la guerra a gran escala. Todo mientras un mal muy antiguo despierta en el norte más lejano. En medio de la guerra, una orden militar descuidada de inadaptados, la Guardia de la Noche, es todo lo que se interpone entre los reinos de los hombres y los horrores de hielo más allá.

Ficha técnica

Video trailer de la película

Enlaces de descarga

Rip de Bluray

Descargar Game of Thrones (2019) Octava Temporada HBO WEB-DL 1080p Latino




Aportes de DPeliculasHDmega la pass es:dpeliculashdmega.org Aportes de CinemaniaHD la pass es:cinemaniahdd.com

Películas relacionadas

  • Batwoman (2021) Temporada 3 HMAX WEB-DL 1080p Latino

    Batwoman (2021) Temporada 3 HMAX WEB-DL 1080p Latino

    2019
    Batwoman (2021) Temporada 3 HMAX WEB-DL 1080p Latino

    0.0 0h 42m 2019

    Kate Kane protege las calles de Gotham como Batwoman, una luchadora con una gran formación dedicada...

    Director: Caroline Dries

    Género: Action & Adventure

    Actores: Victoria Cartagena

  • Stargirl (2021) Temporada 2 WEB-DL 1080p Latino

    Stargirl (2021) Temporada 2 WEB-DL 1080p Latino

    2020
    Stargirl (2021) Temporada 2 WEB-DL 1080p Latino

    3.7 0h 43m 2020

    Courtney Withmore es una estudiante de instituto que ayuda a un grupo de jóvenes héroes a acabar con...

    Director: Geoff Johns

    Género: Action & Adventure

    Actores: Yvette Monreal

  • Dune (2021) HMAX 4K-HDR WEB-DL 2160p Latino

    Dune (2021) HMAX 4K-HDR WEB-DL 2160p Latino

    2021
    Dune (2021) HMAX 4K-HDR WEB-DL 2160p Latino

    5.0 2h 35m 2021

    El hijo de una familia noble trata de vengarse de la muerte de su padre al mismo tiempo que salva un...

    Director: Tom Struthers

    Género: Acción

    Actores: Zendaya

  • Dune (2021) HMAX WEB-DL 1080p Latino

    Dune (2021) HMAX WEB-DL 1080p Latino

    2021
    Dune (2021) HMAX WEB-DL 1080p Latino

    5.0 2h 35m 2021

    El hijo de una familia noble trata de vengarse de la muerte de su padre al mismo tiempo que salva un...

    Director: Tom Struthers

    Género: Acción

    Actores: Zendaya

Game of Thrones (2019) Octava Temporada HBO WEB-DL 1080p Latino pelicula full hd, Game of Thrones (2019) Octava Temporada HBO WEB-DL 1080p Latino mega latino, Game of Thrones (2019) Octava Temporada HBO WEB-DL 1080p Latino 4k latino, Game of Thrones (2019) Octava Temporada HBO WEB-DL 1080p Latino pelicula completa, Game of Thrones (2019) Octava Temporada HBO WEB-DL 1080p Latino descargar gratis, descargar Game of Thrones (2019) Octava Temporada HBO WEB-DL 1080p Latino pelicula latino, Game of Thrones (2019) Octava Temporada HBO WEB-DL 1080p Latino 1 link mega, Game of Thrones (2019) Octava Temporada HBO WEB-DL 1080p Latino 1 link google drive, Game of Thrones (2019) Octava Temporada HBO WEB-DL 1080p Latino hd 1080p latino.
Comentarios 25
  • Oswaldo - 21 mayo, 2019

    SEÑORES CINEMANIA SON LOS MEJORES, MUCHAS GRACIAS POR ESTOS SUPER EPISODIOS

  • Marwyn - 21 mayo, 2019

    Gracias por los videos!

  • Omar Enrique - 13 mayo, 2019

    Muchas gracias por el aporte, muy diligentes!, felicitaciones!

  • Will - 06 mayo, 2019

    Los links de drive no funcionan y Mega me restringe, les recomiendo cambiar MEGA por MediaFire

    • dpelis - 06 mayo, 2019

      hay dos opciones de google drive

  • Dax - 06 mayo, 2019

    Señores por favor el link de Mega no funciona, lleva a Google drive

    • dpelis - 06 mayo, 2019

      link cap 4 esta bien acabo de revisar

  • Jonna - 06 mayo, 2019

    Sera posible resuban el cap 3 por favor ya no está 🙁

    • dpelis - 06 mayo, 2019

      estoy viendo el cap 3 disponibl en google drive

  • daniel de cordoba - 06 mayo, 2019

    jujujuuuu son los primeros y mejores !!! Lejos del resto. Mil gracias !!!!

  • Waldo - 29 abril, 2019

    Debían dividir el episodio en 2 partes

  • Juan Esteban - 29 abril, 2019

    Hola, la pista de audio en español del S08E03 es de otra película, agradecería muchísimo que lo corrigieran

    Saludos y gracias

    • dpelis - 29 abril, 2019

      ya fue corregido amigo. como a los 15 minutos que se subio
      saludos

      • Juan Esteban - 29 abril, 2019

        Gracias por la pronta respuesta amigo…. Super buen aporte!!!

  • Kh - 29 abril, 2019

    Ahora parece que si, gracias..

  • sx - 29 abril, 2019

    audio no coincide episodio 3

    • dpelis - 29 abril, 2019

      ya fue reparado hace minutos

  • Marwyn - 22 abril, 2019

    Gracias!!

  • Walter - 22 abril, 2019

    Excelente aporte… Muchas gracias

  • Eberth Torres - 22 abril, 2019

    Es latino y ingles subtitulado ???

  • Angel - 22 abril, 2019

    Muchísimas gracias, es muy buena su pagina.

  • Oscar Piscoya - 15 abril, 2019

    Por favor cada que salga un nuevo capítulo, súbanlo independientemente. Gracias por el aporte.

  • Julio César - 15 abril, 2019

    Muchas gracias por el aporte! Saludos desde la CDMX

  • Her bre - 15 abril, 2019

    Excelente, Gracias, La mejor Serie de todos los tiempos…..