Game of Thrones (2019) Temporada 8 AMZN 1080p Latino

30.430 vistas
1 estrella2 estrellas3 estrellas4 estrellas5 estrellas (49 votos, promedio: 4,18 de 5)
Cargando…

Información de Game of Thrones (2019) Temporada 8 AMZN 1080p Latino

Datos de la película

  • Calidad: WEBDL
  • Audio: Español Latino AC3 2.0 Capturado- Ingles AC3 5.1 AMAZON
  • Subtitulos: Español Latino SRT- FORZADOS SRT
  • Resolución: 1920x1080
  • Formato: MKV
  • Codec: H.264
  • Encoder: GoT
  • Mediainfo: Clic para Mostrar Datos Ver
  • Game of Thrones T08E05 AMZN WEB-DL Latino.mkv
    Format                      : Matroska
    Format version              : Version 4
    File size                   : 5.09 GiB
    Duration                    : 1 h 20 min
    Overall bit rate            : 9 096 kb/s
    Movie name                  : Game of Thrones T08E05 - CinemaniaHDD.Net
    Encoded date                : UTC 2019-05-13 02:25:43
    Writing application         : mkvmerge v22.0.0 ('At The End Of The World') 64-bit
    Writing library             : libebml v1.3.5 + libmatroska v1.4.8

    Video
    ID                          : 1
    Format                      : AVC
    Format/Info                 : Advanced Video Codec
    Format profile              : High@L4
    Format settings             : CABAC / 4 Ref Frames
    Format settings, CABAC      : Yes
    Format settings, ReFrames   : 4 frames
    Codec ID                    : V_MPEG4/ISO/AVC
    Duration                    : 1 h 20 min
    Bit rate mode               : Constant
    Bit rate                    : 8 197 kb/s
    Nominal bit rate            : 10 000 kb/s
    Width                       : 1 920 pixels
    Height                      : 1 080 pixels
    Display aspect ratio        : 16:9
    Frame rate mode             : Constant
    Frame rate                  : 23.976 (24000/1001) FPS
    Color space                 : YUV
    Chroma subsampling          : 4:2:0
    Bit depth                   : 8 bits
    Scan type                   : Progressive
    Bits/(Pixel*Frame)          : 0.165
    Stream size                 : 4.59 GiB (90%)
    Title                       : CinemaniaHDD
    Default                     : Yes
    Forced                      : No
    Color range                 : Limited
    Color primaries             : BT.709
    Transfer characteristics    : BT.709
    Matrix coefficients         : BT.709

    Audio #1
    ID                          : 2
    Format                      : AC-3
    Format/Info                 : Audio Coding 3
    Commercial name             : Dolby Digital
    Codec ID                    : A_AC3
    Duration                    : 1 h 20 min
    Bit rate mode               : Constant
    Bit rate                    : 256 kb/s
    Channel(s)                  : 2 channels
    Channel layout              : L R
    Sampling rate               : 48.0 kHz
    Frame rate                  : 31.250 FPS (1536 SPF)
    Bit depth                   : 16 bits
    Compression mode            : Lossy
    Stream size                 : 147 MiB (3%)
    Title                       : Español latino [CinemaniaHDD]
    Language                    : Spanish
    Service kind                : Complete Main
    Default                     : Yes
    Forced                      : No

    Audio #2
    ID                          : 3
    Format                      : E-AC-3
    Format/Info                 : Enhanced AC-3
    Commercial name             : Dolby Digital Plus
    Codec ID                    : A_EAC3
    Duration                    : 1 h 20 min
    Bit rate mode               : Constant
    Bit rate                    : 640 kb/s
    Channel(s)                  : 6 channels
    Channel layout              : L R C LFE Ls Rs
    Sampling rate               : 48.0 kHz
    Frame rate                  : 31.250 FPS (1536 SPF)
    Compression mode            : Lossy
    Delay relative to video     : 16 ms
    Stream size                 : 367 MiB (7%)
    Title                       : Inglés [CinemaniaHDD]
    Language                    : English
    Service kind                : Complete Main
    Default                     : No
    Forced                      : No

    Text #1
    ID                          : 4
    Format                      : UTF-8
    Codec ID                    : S_TEXT/UTF8
    Codec ID/Info               : UTF-8 Plain Text
    Duration                    : 3 min 35 s
    Bit rate                    : 37 b/s
    Count of elements           : 33
    Stream size                 : 1 020 Bytes (0%)
    Title                       : Forzados [CinemaniaHDD]
    Language                    : Spanish
    Default                     : Yes
    Forced                      : Yes

    Text #2
    ID                          : 5
    Format                      : UTF-8
    Codec ID                    : S_TEXT/UTF8
    Codec ID/Info               : UTF-8 Plain Text
    Duration                    : 1 h 13 min
    Bit rate                    : 24 b/s
    Count of elements           : 480
    Stream size                 : 13.0 KiB (0%)
    Title                       : Español latino [CinemaniaHDD]
    Language                    : Spanish
    Default                     : No
    Forced                      : No

    Menu
    00:00:00.000                : en:Stay Tuned
    00:00:01.920                : en:Ratings
    00:00:06.920                : en:Previously On
    00:01:41.920                : en:Studio Logo
    00:01:47.920                : en:Opening Credits
    00:03:35.920                : en:The greater the risk, the greater the reward
    00:05:08.920                : en:Betrayal must be dealt with accordingly
    00:14:10.920                : en:Mercy is our strength
    00:20:10.920                : en:Sail for a new life
    00:28:11.920                : en:Preparing the city for battle
    00:33:56.920                : en:The battle begins
    00:39:08.920                : en:The red keep has never fallen
    00:40:43.920                : en:Ring the bells
    00:45:48.920                : en:Surrender means nothing
    00:51:04.920                : en:Another one for the king-slayer
    00:56:01.920                : en:The revenge game has no future
    00:57:43.920                : en:The Clegane's reunite
    01:07:56.920                : en:Jon makes a decision
    01:08:56.920                : en:Death is everywhere
    01:12:02.920                : en:Nothing else matters
    01:14:28.920                : en:King's Landing burns
    01:18:17.920                : en:End Credits
    01:19:37.920                : en:Next Week
    01:20:04.920                : en:Inside the Episode

     

  • Peso: 4.00 GiB Aprox.. Total GiB

Sinopsis

Siete familias nobles luchan por el control de la tierra mítica de Westeros. La fricción entre las casas conduce a la guerra a gran escala. Todo mientras un mal muy antiguo despierta en el norte más lejano. En medio de la guerra, una orden militar descuidada de inadaptados, la Guardia de la Noche, es todo lo que se interpone entre los reinos de los hombres y los horrores de hielo más allá.

6 Episodios Agregados

FINAL DE SERIE

Ficha técnica

Video trailer de la película

Enlaces de descarga

Rip de Bluray

Descargar Game of Thrones (2019) Temporada 8 AMZN 1080p Latino




Aportes de DPeliculasHDmega la pass es:dpeliculashdmega.org Aportes de CinemaniaHD la pass es:cinemaniahdd.com

Películas relacionadas

  • Amadas Hermanas (2014) WEB-DL 1080p Latino

    Amadas Hermanas (2014) WEB-DL 1080p Latino

    2014
    Amadas Hermanas (2014) WEB-DL 1080p Latino

    5.0 2h 50m 2014

    Verano de 1788 en Rudolstadt, una pequeña ciudad rural de Alemania. La hermosa Caroline von Beulwitz...

    Director: Dominik Graf

    Género: Drama

    Actores: Thomas Kornack

  • Alabama Moon (2009) WEB-DL 1080p Latino

    Alabama Moon (2009) WEB-DL 1080p Latino

    2009
    Alabama Moon (2009) WEB-DL 1080p Latino

    5.0 1h 35m 2009

    Moon Blaike (Jimmy Bennet, 'Poseidón') ha vivido toda su vida junto a su padre Oliver en una cueva escondida...

    Director: Tim McCanlies

    Género: Acción

    Actores: Uriah Shelton

  • Sangre y arena (1941) Full HD 1080p Latino – CMHDD

    Sangre y arena (1941) Full HD 1080p Latino – CMHDD

    1941
    Sangre y arena (1941) Full HD 1080p Latino – CMHDD

    3.0 2h 5m 1941

    Después de muchas dificultades, Juan Gallardo (Tyrone Power) se convierte en la primera figura del toreo....

    Director: Rouben Mamoulian

    Género: Acción

    Actores: Victor Kilian

Comentarios 25
  • Oswaldo - 21 mayo, 2019

    SEÑORES CINEMANIA SON LOS MEJORES, MUCHAS GRACIAS POR ESTOS SUPER EPISODIOS

  • Marwyn - 21 mayo, 2019

    Gracias por los videos!

  • Omar Enrique - 13 mayo, 2019

    Muchas gracias por el aporte, muy diligentes!, felicitaciones!

  • Will - 06 mayo, 2019

    Los links de drive no funcionan y Mega me restringe, les recomiendo cambiar MEGA por MediaFire

    • dpelis - 06 mayo, 2019

      hay dos opciones de google drive

  • Dax - 06 mayo, 2019

    Señores por favor el link de Mega no funciona, lleva a Google drive

    • dpelis - 06 mayo, 2019

      link cap 4 esta bien acabo de revisar

  • Jonna - 06 mayo, 2019

    Sera posible resuban el cap 3 por favor ya no está 🙁

    • dpelis - 06 mayo, 2019

      estoy viendo el cap 3 disponibl en google drive

  • daniel de cordoba - 06 mayo, 2019

    jujujuuuu son los primeros y mejores !!! Lejos del resto. Mil gracias !!!!

  • Waldo - 29 abril, 2019

    Debían dividir el episodio en 2 partes

  • Juan Esteban - 29 abril, 2019

    Hola, la pista de audio en español del S08E03 es de otra película, agradecería muchísimo que lo corrigieran

    Saludos y gracias

    • dpelis - 29 abril, 2019

      ya fue corregido amigo. como a los 15 minutos que se subio
      saludos

      • Juan Esteban - 29 abril, 2019

        Gracias por la pronta respuesta amigo…. Super buen aporte!!!

  • Kh - 29 abril, 2019

    Ahora parece que si, gracias..

  • sx - 29 abril, 2019

    audio no coincide episodio 3

    • dpelis - 29 abril, 2019

      ya fue reparado hace minutos

  • Marwyn - 22 abril, 2019

    Gracias!!

  • Walter - 22 abril, 2019

    Excelente aporte… Muchas gracias

  • Eberth Torres - 22 abril, 2019

    Es latino y ingles subtitulado ???

  • Angel - 22 abril, 2019

    Muchísimas gracias, es muy buena su pagina.

  • Oscar Piscoya - 15 abril, 2019

    Por favor cada que salga un nuevo capítulo, súbanlo independientemente. Gracias por el aporte.

  • Julio César - 15 abril, 2019

    Muchas gracias por el aporte! Saludos desde la CDMX

  • Her bre - 15 abril, 2019

    Excelente, Gracias, La mejor Serie de todos los tiempos…..