×

¿Problemas para descargar con Mozilla, EDGE? Deshabilita la opción "Abrir vinculos en una pestaña nueva" tal como lo muestra ésta imagen.

Juego De Tronos (2017) Septima Temporada Full HD 1080p Latino – CMHDD

12.190 vistas

Información de Juego De Tronos (2017) Septima Temporada Full HD 1080p Latino – CMHDD

Datos de la película

  • Calidad: Full 1080p
  • Audio: Español Latino AC3 2.0 BLURAY - Ingles AC3 5.1 BLURAY
  • Subtitulos: Español Latino SRT- FORZADOS SRT
  • Resolución: 1920X1080
  • Formato: MKV
  • Codec: H.264
  • Encoder: Dracarys
  • Mediainfo: Clic para Mostrar Datos Ver
  • Format                      : Matroska
    Format version              : Version 4
    File size                   : 4.07 GiB
    Duration                    : 58 min 40 s
    Overall bit rate            : 9 933 kb/s
    Movie name                  : Juego De Tronos (2017) [S76E01] Full 1080p Latino - CMHDD
    Encoded date                : UTC 2024-04-16 19:08:02
    Writing application         : mkvmerge v47.0.0 ('Black Flag') 64-bit
    Writing library             : libebml v1.3.10 + libmatroska v1.5.2

    Video
    ID                          : 1
    Format                      : AVC
    Format/Info                 : Advanced Video Codec
    Format profile              : High@L4.1
    Format settings             : CABAC / 4 Ref Frames
    Format settings, CABAC      : Yes
    Format settings, Reference  : 4 frames
    Codec ID                    : V_MPEG4/ISO/AVC
    Duration                    : 58 min 40 s
    Bit rate                    : 9 034 kb/s
    Width                       : 1 920 pixels
    Height                      : 1 080 pixels
    Display aspect ratio        : 16:9
    Frame rate mode             : Constant
    Frame rate                  : 23.976 (24000/1001) FPS
    Color space                 : YUV
    Chroma subsampling          : 4:2:0
    Bit depth                   : 8 bits
    Scan type                   : Progressive
    Bits/(Pixel*Frame)          : 0.182
    Stream size                 : 3.70 GiB (91%)
    Writing library             : x264 core 152 r2851 ba24899
    Encoding settings           : cabac=1 / ref=4 / deblock=1:-3:-3 / analyse=0x3:0x113 / me=umh / subme=8 / psy=1 / psy_rd=1.00:0.00 / mixed_ref=1 / me_range=16 / chroma_me=1 / trellis=1 / 8x8dct=1 / cqm=0 / deadzone=21,11 / fast_pskip=1 / chroma_qp_offset=-2 / threads=30 / lookahead_threads=5 / sliced_threads=0 / nr=0 / decimate=1 / interlaced=0 / bluray_compat=0 / constrained_intra=0 / bframes=3 / b_pyramid=2 / b_adapt=1 / b_bias=0 / direct=3 / weightb=1 / open_gop=0 / weightp=2 / keyint=240 / keyint_min=24 / scenecut=40 / intra_refresh=0 / rc_lookahead=50 / rc=2pass / mbtree=1 / bitrate=9034 / ratetol=1.0 / qcomp=0.60 / qpmin=0 / qpmax=69 / qpstep=4 / cplxblur=20.0 / qblur=0.5 / ip_ratio=1.40 / aq=1:1.00
    Language                    : English
    Default                     : Yes
    Forced                      : No

    Audio #1
    ID                          : 2
    Format                      : AC-3
    Format/Info                 : Audio Coding 3
    Commercial name             : Dolby Digital
    Format settings             : Dolby Surround
    Codec ID                    : A_AC3
    Duration                    : 58 min 40 s
    Bit rate mode               : Constant
    Bit rate                    : 256 kb/s
    Channel(s)                  : 2 channels
    Channel layout              : L R
    Sampling rate               : 48.0 kHz
    Frame rate                  : 31.250 FPS (1536 SPF)
    Compression mode            : Lossy
    Stream size                 : 107 MiB (3%)
    Language                    : Spanish
    Service kind                : Complete Main
    Default                     : Yes
    Forced                      : Yes

    Audio #2
    ID                          : 3
    Format                      : AC-3
    Format/Info                 : Audio Coding 3
    Commercial name             : Dolby Digital
    Format settings             : Dolby Surround EX
    Codec ID                    : A_AC3
    Duration                    : 58 min 40 s
    Bit rate mode               : Constant
    Bit rate                    : 640 kb/s
    Channel(s)                  : 6 channels
    Channel layout              : L R C LFE Ls Rs
    Sampling rate               : 48.0 kHz
    Frame rate                  : 31.250 FPS (1536 SPF)
    Compression mode            : Lossy
    Stream size                 : 269 MiB (6%)
    Language                    : English
    Service kind                : Complete Main
    Default                     : No
    Forced                      : No

    Text
    ID                          : 4
    Format                      : UTF-8
    Codec ID                    : S_TEXT/UTF8
    Codec ID/Info               : UTF-8 Plain Text
    Duration                    : 56 min 52 s
    Bit rate                    : 52 b/s
    Frame rate                  : 0.186 FPS
    Count of elements           : 635
    Stream size                 : 22.1 KiB (0%)
    Language                    : Spanish
    Default                     : Yes
    Forced                      : No

     

  • Peso: 29.7 GiB

Sinopsis

Juego de Tronos es una serie de televisión de drama y fantasía creada para la HBO por David Benioff y D. B. Weiss. Es una adaptación de la saga de novelas de fantasía Canción de Hielo y Fuego de George R. R. Martin. La primera de las novelas es la que da nombre a la serie.

La serie, ambientada en los continentes ficticios de Westeros y Essos al final de un verano de una decada de duración, entrelaza varias líneas argumentales. La primera sigue a los miembros de varias casas nobles inmersos en una guerra civil por conseguir el Trono de Hierro de los Siete Reinos. La segunda trata sobre la creciente amenaza de un inminente invierno y sobre las temibles criaturas del norte. La tercera relata los esfuerzos por reclamar el trono de los últimos miembros exiliados de una dinastía destronada. A pesar de sus personajes moralmente ambiguos, la serie profundiza en los problemas de la jerarquía social, religión, lealtad, corrupción, sexo, guerra civil, crimen y castigo.

 

 

Ficha técnica

Video trailer de la película

Enlaces de descarga

Rip de Bluray

Descargar Juego De Tronos (2017) Septima Temporada Full HD 1080p Latino – CMHDD




Aportes de DPeliculasHDmega la pass es:dpeliculashdmega.org Aportes de CinemaniaHD la pass es:cinemaniahdd.com Aportes recientes:cinemaniahdd.net

Películas relacionadas

descargar Juego De Tronos (2017) Septima Temporada Full HD 1080p Latino – CMHDD Full 1080p 1080p gratis, Juego De Tronos (2017) Septima Temporada Full HD 1080p Latino – CMHDD Full 1080p mega 1 link, Juego De Tronos (2017) Septima Temporada Full HD 1080p Latino – CMHDD Full 1080p serie completa, descargar Juego De Tronos (2017) Septima Temporada Full HD 1080p Latino – CMHDD Full 1080p gratis en mega.

Juego De Tronos (2017) Septima Temporada Full HD 1080p Latino – CMHDD pelicula full hd, Juego De Tronos (2017) Septima Temporada Full HD 1080p Latino – CMHDD mega latino, Juego De Tronos (2017) Septima Temporada Full HD 1080p Latino – CMHDD 4k latino, Juego De Tronos (2017) Septima Temporada Full HD 1080p Latino – CMHDD pelicula completa, Juego De Tronos (2017) Septima Temporada Full HD 1080p Latino – CMHDD descargar gratis, descargar Juego De Tronos (2017) Septima Temporada Full HD 1080p Latino – CMHDD pelicula latino, Juego De Tronos (2017) Septima Temporada Full HD 1080p Latino – CMHDD 1 link mega, Juego De Tronos (2017) Septima Temporada Full HD 1080p Latino – CMHDD 1 link google drive, Juego De Tronos (2017) Septima Temporada Full HD 1080p Latino – CMHDD hd 1080p latino.
Comentarios 11