×

¿Problemas para descargar con Mozilla, EDGE? Deshabilita la opción "Abrir vinculos en una pestaña nueva" tal como lo muestra ésta imagen.

Juego De Tronos (2017) Septima Temporada Full HD 1080p Latino – CMHDD

11.721 vistas

Información de Juego De Tronos (2017) Septima Temporada Full HD 1080p Latino – CMHDD

Datos de la película

  • Calidad: Full 1080p
  • Audio: Se especifica abajo de la Sinopsis
  • Subtitulos: Español Latino PGS
  • Resolución: 1920X1080
  • Formato: MKV
  • Codec: H.264
  • Encoder: Dracarys
  • Mediainfo: Clic para Mostrar Datos Ver
  • Format                      : Matroska
    Format version              : Version 4
    File size                   : 3.47 GiB
    Duration                    : 58 min 40 s
    Overall bit rate mode       : Variable
    Overall bit rate            : 8 476 kb/s
    Movie name                  : Juego De Tronos [S7E01] (2017) Full HD 1080p Latino - CMHDD
    Encoded date                : UTC 2021-11-22 23:46:04
    Writing application         : mkvmerge v17.0.0 ('Be Ur Friend') 64-bit
    Writing library             : libebml v1.3.5 + libmatroska v1.4.8

    Video
    ID                          : 1
    Format                      : AVC
    Format/Info                 : Advanced Video Codec
    Format profile              : High@L4.1
    Format settings             : CABAC / 4 Ref Frames
    Format settings, CABAC      : Yes
    Format settings, Reference  : 4 frames
    Codec ID                    : V_MPEG4/ISO/AVC
    Duration                    : 58 min 40 s
    Bit rate                    : 4 077 kb/s
    Width                       : 1 920 pixels
    Height                      : 1 080 pixels
    Display aspect ratio        : 16:9
    Frame rate mode             : Constant
    Frame rate                  : 23.976 (24000/1001) FPS
    Color space                 : YUV
    Chroma subsampling          : 4:2:0
    Bit depth                   : 8 bits
    Scan type                   : Progressive
    Bits/(Pixel*Frame)          : 0.082
    Stream size                 : 1.67 GiB (48%)
    Writing library             : x264 core 163 r3059 b684ebe0
    Encoding settings           : cabac=1 / ref=4 / deblock=1:0:0 / analyse=0x3:0x133 / me=esa / subme=10 / psy=1 / psy_rd=1.00:0.00 / mixed_ref=1 / me_range=24 / chroma_me=1 / trellis=2 / 8x8dct=1 / cqm=0 / deadzone=21,11 / fast_pskip=1 / chroma_qp_offset=-2 / threads=24 / lookahead_threads=4 / sliced_threads=0 / nr=0 / decimate=1 / interlaced=0 / bluray_compat=0 / constrained_intra=0 / bframes=8 / b_pyramid=2 / b_adapt=2 / b_bias=0 / direct=3 / weightb=1 / open_gop=0 / weightp=2 / keyint=240 / keyint_min=24 / scenecut=40 / intra_refresh=0 / rc_lookahead=60 / rc=crf / mbtree=1 / crf=20.0 / qcomp=0.60 / qpmin=0 / qpmax=69 / qpstep=4 / vbv_maxrate=62500 / vbv_bufsize=78125 / crf_max=0.0 / nal_hrd=none / filler=0 / ip_ratio=1.40 / aq=1:1.00
    Default                     : Yes
    Forced                      : No
    Color range                 : Limited
    Color primaries             : BT.709
    Transfer characteristics    : BT.709
    Matrix coefficients         : BT.709

    Audio #1
    ID                          : 2
    Format                      : AC-3
    Format/Info                 : Audio Coding 3
    Commercial name             : Dolby Digital
    Format settings             : Dolby Surround
    Codec ID                    : A_AC3
    Duration                    : 58 min 40 s
    Bit rate mode               : Constant
    Bit rate                    : 256 kb/s
    Channel(s)                  : 2 channels
    Channel layout              : L R
    Sampling rate               : 48.0 kHz
    Frame rate                  : 31.250 FPS (1536 SPF)
    Compression mode            : Lossy
    Stream size                 : 107 MiB (3%)
    Language                    : Spanish
    Service kind                : Complete Main
    Default                     : Yes
    Forced                      : No

    Audio #2
    ID                          : 3
    Format                      : MLP FBA 16-ch
    Format/Info                 : Meridian Lossless Packing FBA with 16-channel presentation
    Commercial name             : Dolby TrueHD with Dolby Atmos
    Codec ID                    : A_TRUEHD
    Duration                    : 58 min 40 s
    Bit rate mode               : Variable
    Bit rate                    : 4 065 kb/s
    Maximum bit rate            : 7 248 kb/s
    Channel(s)                  : 8 channels
    Channel layout              : L R C LFE Ls Rs Lb Rb
    Sampling rate               : 48.0 kHz
    Frame rate                  : 1 200.000 FPS (40 SPF)
    Compression mode            : Lossless
    Stream size                 : 1.67 GiB (48%)
    Language                    : English
    Default                     : No
    Forced                      : No
    Number of dynamic objects   : 15
    Bed channel count           : 1 channel
    Bed channel configuration   : LFE

    Text
    ID                          : 4
    Format                      : PGS
    Muxing mode                 : zlib
    Codec ID                    : S_HDMV/PGS
    Codec ID/Info               : Picture based subtitle format used on BDs/HD-DVDs
    Duration                    : 56 min 47 s
    Bit rate                    : 32.5 kb/s
    Count of elements           : 1294
    Stream size                 : 13.2 MiB (0%)
    Language                    : Spanish
    Default                     : No
    Forced                      : No

  • Peso: 26.9 GiB

Sinopsis

Juego de Tronos es una serie de televisión de drama y fantasía creada para la HBO por David Benioff y D. B. Weiss. Es una adaptación de la saga de novelas de fantasía Canción de Hielo y Fuego de George R. R. Martin. La primera de las novelas es la que da nombre a la serie.

La serie, ambientada en los continentes ficticios de Westeros y Essos al final de un verano de una decada de duración, entrelaza varias líneas argumentales. La primera sigue a los miembros de varias casas nobles inmersos en una guerra civil por conseguir el Trono de Hierro de los Siete Reinos. La segunda trata sobre la creciente amenaza de un inminente invierno y sobre las temibles criaturas del norte. La tercera relata los esfuerzos por reclamar el trono de los últimos miembros exiliados de una dinastía destronada. A pesar de sus personajes moralmente ambiguos, la serie profundiza en los problemas de la jerarquía social, religión, lealtad, corrupción, sexo, guerra civil, crimen y castigo.

 

Latino: AC3 2.0  –  Ingles: TrueHD 7.1

Ficha técnica

Video trailer de la película

Enlaces de descarga

Rip de Bluray

Descargar Juego De Tronos (2017) Septima Temporada Full HD 1080p Latino – CMHDD




Aportes de DPeliculasHDmega la pass es:dpeliculashdmega.org Aportes de CinemaniaHD la pass es:cinemaniahdd.com

Películas relacionadas

descargar Juego De Tronos (2017) Septima Temporada Full HD 1080p Latino – CMHDD Full 1080p 1080p gratis, Juego De Tronos (2017) Septima Temporada Full HD 1080p Latino – CMHDD Full 1080p mega 1 link, Juego De Tronos (2017) Septima Temporada Full HD 1080p Latino – CMHDD Full 1080p serie completa, descargar Juego De Tronos (2017) Septima Temporada Full HD 1080p Latino – CMHDD Full 1080p gratis en mega.

Juego De Tronos (2017) Septima Temporada Full HD 1080p Latino – CMHDD pelicula full hd, Juego De Tronos (2017) Septima Temporada Full HD 1080p Latino – CMHDD mega latino, Juego De Tronos (2017) Septima Temporada Full HD 1080p Latino – CMHDD 4k latino, Juego De Tronos (2017) Septima Temporada Full HD 1080p Latino – CMHDD pelicula completa, Juego De Tronos (2017) Septima Temporada Full HD 1080p Latino – CMHDD descargar gratis, descargar Juego De Tronos (2017) Septima Temporada Full HD 1080p Latino – CMHDD pelicula latino, Juego De Tronos (2017) Septima Temporada Full HD 1080p Latino – CMHDD 1 link mega, Juego De Tronos (2017) Septima Temporada Full HD 1080p Latino – CMHDD 1 link google drive, Juego De Tronos (2017) Septima Temporada Full HD 1080p Latino – CMHDD hd 1080p latino.
Comentarios 11
  • Jaidriana - 23 marzo, 2019

    Buenísima!

  • Cesar Davila - 06 diciembre, 2017

    ¡Hola! Podrías compartir los subtítulos de esta temporada en calidad Blu-ray pero en formato SRT, por fa?
    No todas las TV’s reconocen los que tiene por default.
    De antemano, gracias! ¡Son la mejore página!

    • dpelis - 06 diciembre, 2017

      no tengo subtitulos SRT, seguro han de estar en subdix

  • Amador Constante - 05 diciembre, 2017

    Gracias Dpelis, este es un buen regalo para navidad, la mejor serie para disfrutarla en familia, ¡a mi mujer le fascina!, y ella quiere en la mejor calidad, la que ustedes ofrecen es óptima en audio y vídeo para no perder ni un detalle, mil gracias una ves más.

    buena suerte +

  • Oswaldo - 03 diciembre, 2017

    Hola, muchas gracias por esos tremendos aportes muy agradecido con ustedes, muchos saludos desde Colombia

  • geovanny - 02 diciembre, 2017

    Subiras tambien las demas temporadas en esta calidad??

    • Dpelis2 - 02 diciembre, 2017

      Ya estan publicadas

      • Seiyayin - 04 diciembre, 2017

        Hola, estuve buscando en la pagina antigua y esta pagina y no encontré las temporadas anteriores en calidad plateada, sólo están en negra 720p y en dorada HDTV.
        Sería de agrado de muchos si las suben todas en plateada como esta temporada para tener la colección con la calidad que los caracteriza.
        Abrazos 🙂

  • dantor - 02 diciembre, 2017

    y que paso con los link de mega

    • Dpelis2 - 02 diciembre, 2017

      estaran en 1 hora