×

¿Problemas para descargar con Mozilla, EDGE? Deshabilita la opción "Abrir vinculos en una pestaña nueva" tal como lo muestra ésta imagen.

Juego de Tronos (2015) Quinta Temporada Full HD 1080p Latino – CMHDD

5.927 vistas

Información de Juego de Tronos (2015) Quinta Temporada Full HD 1080p Latino – CMHDD

Afiche promocional Temporada 5 GoT HBO

Datos de la película

  • Calidad: Full 1080p
  • Audio: Español Latino AC3 2.0 BLURAY - Ingles AC3 5.1 BLURAY
  • Subtitulos: Español Latino SRT
  • Resolución: 1920x1080p
  • Formato: MKV
  • Codec: H.264
  • Encoder: Dracarys
  • Mediainfo: Clic para Mostrar Datos Ver
  • Format                      : Matroska
    Format version              : Version 4
    File size                   : 4.06 GiB
    Duration                    : 52 min 11 s
    Overall bit rate            : 11.1 Mb/s
    Movie name                  : Juego De Tronos (2015) [S05E01] Full 1080p Latino - CMHDD
    Encoded date                : UTC 2024-04-15 21:18:04
    Writing application         : mkvmerge v47.0.0 ('Black Flag') 64-bit
    Writing library             : libebml v1.3.10 + libmatroska v1.5.2

    Video
    ID                          : 1
    Format                      : AVC
    Format/Info                 : Advanced Video Codec
    Format profile              : High@L4.1
    Format settings             : CABAC / 4 Ref Frames
    Format settings, CABAC      : Yes
    Format settings, Reference  : 4 frames
    Codec ID                    : V_MPEG4/ISO/AVC
    Duration                    : 52 min 11 s
    Bit rate                    : 10.2 Mb/s
    Width                       : 1 920 pixels
    Height                      : 1 080 pixels
    Display aspect ratio        : 16:9
    Frame rate mode             : Constant
    Frame rate                  : 23.976 FPS
    Color space                 : YUV
    Chroma subsampling          : 4:2:0
    Bit depth                   : 8 bits
    Scan type                   : Progressive
    Bits/(Pixel*Frame)          : 0.206
    Stream size                 : 3.74 GiB (92%)
    Writing library             : x264 core 148 r2665 a01e339
    Encoding settings           : cabac=1 / ref=4 / deblock=1:0:0 / analyse=0x3:0x133 / me=umh / subme=7 / psy=1 / psy_rd=1.00:0.00 / mixed_ref=1 / me_range=16 / chroma_me=1 / trellis=1 / 8x8dct=1 / cqm=0 / deadzone=21,11 / fast_pskip=0 / chroma_qp_offset=-2 / threads=12 / lookahead_threads=2 / sliced_threads=0 / nr=0 / decimate=1 / interlaced=0 / bluray_compat=0 / constrained_intra=0 / bframes=3 / b_pyramid=2 / b_adapt=1 / b_bias=0 / direct=1 / weightb=1 / open_gop=0 / weightp=2 / keyint=250 / keyint_min=23 / scenecut=40 / intra_refresh=0 / rc_lookahead=40 / rc=2pass / mbtree=1 / bitrate=10249 / ratetol=1.0 / qcomp=0.60 / qpmin=0 / qpmax=69 / qpstep=4 / cplxblur=20.0 / qblur=0.5 / ip_ratio=1.40 / aq=1:1.00
    Language                    : English
    Default                     : Yes
    Forced                      : No

    Audio #1
    ID                          : 2
    Format                      : AC-3
    Format/Info                 : Audio Coding 3
    Commercial name             : Dolby Digital
    Format settings             : Dolby Surround
    Codec ID                    : A_AC3
    Duration                    : 52 min 11 s
    Bit rate mode               : Constant
    Bit rate                    : 256 kb/s
    Channel(s)                  : 2 channels
    Channel layout              : L R
    Sampling rate               : 48.0 kHz
    Frame rate                  : 31.250 FPS (1536 SPF)
    Compression mode            : Lossy
    Stream size                 : 95.6 MiB (2%)
    Language                    : Spanish
    Service kind                : Complete Main
    Default                     : Yes
    Forced                      : Yes

    Audio #2
    ID                          : 3
    Format                      : AC-3
    Format/Info                 : Audio Coding 3
    Commercial name             : Dolby Digital
    Format settings             : Dolby Surround EX
    Codec ID                    : A_AC3
    Duration                    : 52 min 11 s
    Bit rate mode               : Constant
    Bit rate                    : 640 kb/s
    Channel(s)                  : 6 channels
    Channel layout              : L R C LFE Ls Rs
    Sampling rate               : 48.0 kHz
    Frame rate                  : 31.250 FPS (1536 SPF)
    Compression mode            : Lossy
    Stream size                 : 239 MiB (6%)
    Language                    : English
    Service kind                : Complete Main
    Default                     : No
    Forced                      : No

    Text
    ID                          : 4
    Format                      : UTF-8
    Codec ID                    : S_TEXT/UTF8
    Codec ID/Info               : UTF-8 Plain Text
    Duration                    : 46 min 49 s
    Bit rate                    : 58 b/s
    Frame rate                  : 0.209 FPS
    Count of elements           : 586
    Stream size                 : 19.9 KiB (0%)
    Language                    : Spanish
    Default                     : No
    Forced                      : No

     

  • Peso: 40 GB Total

Sinopsis

Descargar gratis Juegos de Tronos (2015) Temporada 5 Full Latino 

Sinopsis captitulo 1: La reina Cersei Lannister (Lena Headey) y su mellizo, Ser Jaime (Nikolaj Coster-Waldau), se adaptan a un mundo sin su padre. Varys (Conleth Hill) le revela una conspiración a Tyrion Lannister (Peter Dinklage). Daenerys Targaryen (Emilia Clarke) se enfrenta a una nueva amenaza para su reinado. Jon Nieve (Kit Harington) está atrapado entre dos reyes.

 

 

Ficha técnica

Video trailer de la película

Enlaces de descarga

Rip de Bluray

Descargar Juego de Tronos (2015) Quinta Temporada Full HD 1080p Latino – CMHDD




Aportes de DPeliculasHDmega la pass es:dpeliculashdmega.org Aportes de CinemaniaHD la pass es:cinemaniahdd.com Aportes recientes:cinemaniahdd.net

Películas relacionadas

  • Red de venganza (2023) HD 1080p Latino

    Red de venganza (2023) HD 1080p Latino

    2023
    Red de venganza (2023) HD 1080p Latino

    1h 25m 2023

    Descargar Red de venganza (2023) HD 1080p Latino. Analiza los problemas que surgen entre una madre (Summer...

    Director: Amy Redford

    Género: Drama

    Actores: Summer Phoenix

  • Red de venganza (2023) REMUX 1080p Latino

    Red de venganza (2023) REMUX 1080p Latino

    2023
    Red de venganza (2023) REMUX 1080p Latino

    1h 25m 2023

    Descargar Red de venganza (2023) REMUX 1080p Latino. Analiza los problemas que surgen entre una madre...

    Director: Amy Redford

    Género: Drama

    Actores: Summer Phoenix

  • Recuerdos Mortales (2024) WEB-DL 1080p Latino

    Recuerdos Mortales (2024) WEB-DL 1080p Latino

    2024
    Recuerdos Mortales (2024) WEB-DL 1080p Latino

    1h 52m 2024

    Descargar Recuerdos Mortales (2024) WEB-DL 1080p Latino. Después de someterse a un tratamiento de vanguardia...

    Director: Adam Cooper

    Género: Crimen

    Actores: Tommy Flanagan

descargar Juego de Tronos (2015) Quinta Temporada Full HD 1080p Latino – CMHDD Full 1080p 1080p gratis, Juego de Tronos (2015) Quinta Temporada Full HD 1080p Latino – CMHDD Full 1080p mega 1 link, Juego de Tronos (2015) Quinta Temporada Full HD 1080p Latino – CMHDD Full 1080p serie completa, descargar Juego de Tronos (2015) Quinta Temporada Full HD 1080p Latino – CMHDD Full 1080p gratis en mega.

Juego de Tronos (2015) Quinta Temporada Full HD 1080p Latino – CMHDD pelicula full hd, Juego de Tronos (2015) Quinta Temporada Full HD 1080p Latino – CMHDD mega latino, Juego de Tronos (2015) Quinta Temporada Full HD 1080p Latino – CMHDD 4k latino, Juego de Tronos (2015) Quinta Temporada Full HD 1080p Latino – CMHDD pelicula completa, Juego de Tronos (2015) Quinta Temporada Full HD 1080p Latino – CMHDD descargar gratis, descargar Juego de Tronos (2015) Quinta Temporada Full HD 1080p Latino – CMHDD pelicula latino, Juego de Tronos (2015) Quinta Temporada Full HD 1080p Latino – CMHDD 1 link mega, Juego de Tronos (2015) Quinta Temporada Full HD 1080p Latino – CMHDD 1 link google drive, Juego de Tronos (2015) Quinta Temporada Full HD 1080p Latino – CMHDD hd 1080p latino.
Comentarios 8