×

¿Problemas para descargar con Mozilla, EDGE? Deshabilita la opción "Abrir vinculos en una pestaña nueva" tal como lo muestra ésta imagen.

Juego de Tronos (2012) Segunda Temporada Full HD 1080p Latino – CMHDD

629 vistas

Información de Juego de Tronos (2012) Segunda Temporada Full HD 1080p Latino – CMHDD

Datos de la película

  • Calidad: Full 1080p
  • Audio: Español Latino AC3 2.0 BLURAY - Ingles DTS 5.1 BLURAY
  • Subtitulos: Español Latino SRT
  • Resolución: 1920x1080p
  • Formato: MKV
  • Codec: H.264
  • Encoder: Dracarys
  • Mediainfo: Clic para Mostrar Datos Ver
  • Format                      : Matroska
    Format version              : Version 4
    File size                   : 4.47 GiB
    Duration                    : 52 min 41 s
    Overall bit rate            : 12.1 Mb/s
    Movie name                  : Juego De Tronos (2012) [S02E01] Full 1080p Latino - CMHDD
    Encoded date                : UTC 2024-04-14 23:45:51
    Writing application         : mkvmerge v47.0.0 ('Black Flag') 64-bit
    Writing library             : libebml v1.3.10 + libmatroska v1.5.2

    Video
    ID                          : 1
    Format                      : AVC
    Format/Info                 : Advanced Video Codec
    Format profile              : High@L4.1
    Format settings             : CABAC / 4 Ref Frames
    Format settings, CABAC      : Yes
    Format settings, Reference  : 4 frames
    Codec ID                    : V_MPEG4/ISO/AVC
    Duration                    : 52 min 41 s
    Bit rate                    : 10.4 Mb/s
    Width                       : 1 920 pixels
    Height                      : 1 080 pixels
    Display aspect ratio        : 16:9
    Frame rate mode             : Constant
    Frame rate                  : 23.976 (24000/1001) FPS
    Color space                 : YUV
    Chroma subsampling          : 4:2:0
    Bit depth                   : 8 bits
    Scan type                   : Progressive
    Bits/(Pixel*Frame)          : 0.208
    Stream size                 : 3.81 GiB (85%)
    Writing library             : x264 core 129 r2245 bc13772
    Encoding settings           : cabac=1 / ref=4 / deblock=1:0:0 / analyse=0x3:0x133 / me=umh / subme=7 / psy=1 / psy_rd=1.00:0.00 / mixed_ref=1 / me_range=16 / chroma_me=1 / trellis=1 / 8x8dct=1 / cqm=0 / deadzone=21,11 / fast_pskip=0 / chroma_qp_offset=-2 / threads=12 / lookahead_threads=2 / sliced_threads=0 / nr=0 / decimate=1 / interlaced=0 / bluray_compat=0 / constrained_intra=0 / bframes=3 / b_pyramid=2 / b_adapt=1 / b_bias=0 / direct=1 / weightb=1 / open_gop=0 / weightp=2 / keyint=250 / keyint_min=23 / scenecut=40 / intra_refresh=0 / rc_lookahead=40 / rc=2pass / mbtree=1 / bitrate=10362 / ratetol=1.0 / qcomp=0.60 / qpmin=0 / qpmax=69 / qpstep=4 / cplxblur=20.0 / qblur=0.5 / ip_ratio=1.40 / aq=1:1.00
    Language                    : English
    Default                     : Yes
    Forced                      : No

    Audio #1
    ID                          : 2
    Format                      : AC-3
    Format/Info                 : Audio Coding 3
    Commercial name             : Dolby Digital
    Codec ID                    : A_AC3
    Duration                    : 52 min 41 s
    Bit rate mode               : Constant
    Bit rate                    : 256 kb/s
    Channel(s)                  : 2 channels
    Channel layout              : L R
    Sampling rate               : 48.0 kHz
    Frame rate                  : 31.250 FPS (1536 SPF)
    Compression mode            : Lossy
    Delay relative to video     : 83 ms
    Stream size                 : 96.5 MiB (2%)
    Language                    : Spanish
    Service kind                : Complete Main
    Default                     : Yes
    Forced                      : Yes

    Audio #2
    ID                          : 3
    Format                      : DTS
    Format/Info                 : Digital Theater Systems
    Codec ID                    : A_DTS
    Duration                    : 52 min 41 s
    Bit rate mode               : Constant
    Bit rate                    : 1 509 kb/s
    Channel(s)                  : 6 channels
    Channel layout              : C L R Ls Rs LFE
    Sampling rate               : 48.0 kHz
    Frame rate                  : 93.750 FPS (512 SPF)
    Bit depth                   : 24 bits
    Compression mode            : Lossy
    Stream size                 : 569 MiB (12%)
    Language                    : English
    Default                     : No
    Forced                      : No

    Text
    ID                          : 4
    Format                      : ASS
    Codec ID                    : S_TEXT/ASS
    Codec ID/Info               : Advanced Sub Station Alpha
    Duration                    : 48 min 34 s
    Bit rate                    : 120 b/s
    Frame rate                  : 0.256 FPS
    Count of elements           : 745
    Compression mode            : Lossless
    Stream size                 : 43.0 KiB (0%)
    Language                    : Spanish
    Default                     : No
    Forced                      : No

     

  • Peso: 42.2 GiB

Sinopsis

Juego de Tronos es una serie de televisión de drama y fantasía creada para la HBO por David Benioff y D. B. Weiss. Es una adaptación de la sga de novelas de fantasía Canción de Hielo y Fuego de George R. R. Martin. La primera de las novelas es la que da nombre a la serie.

La serie, ambientada en los continentes ficticios de Westeros y Essos al final de un verano de una decada de duración, entrelaza varias lneas argumentales. La primera sigue a los miembros de varias casas nobles inmersos en una guerra civil por conseguir el Trono de Hierro de los Siete Reinos. La segunda trata sobre la creciente amenaza de un inminente invierno y sobre las temibles criaturas del norte. La tercera relata los esfuerzos por reclamar el trono de los últimos miembros exiliados de una dinastía destronada. A pesar de sus personajes moralmente ambiguos, la serie profundiza en los problemas de la jerarquía social, religión, lealtad, corrupción, sexo, guerra civil, crimen y castigo.

 

 

Ficha técnica

Video trailer de la película

Enlaces de descarga

Rip de Bluray

Descargar Juego de Tronos (2012) Segunda Temporada Full HD 1080p Latino – CMHDD




Aportes de DPeliculasHDmega la pass es:dpeliculashdmega.org Aportes de CinemaniaHD la pass es:cinemaniahdd.com Aportes recientes:cinemaniahdd.net

Películas relacionadas

  • Red de venganza (2023) HD 1080p Latino

    Red de venganza (2023) HD 1080p Latino

    2023
    Red de venganza (2023) HD 1080p Latino

    1h 25m 2023

    Descargar Red de venganza (2023) HD 1080p Latino. Analiza los problemas que surgen entre una madre (Summer...

    Director: Amy Redford

    Género: Drama

    Actores: Summer Phoenix

  • Red de venganza (2023) REMUX 1080p Latino

    Red de venganza (2023) REMUX 1080p Latino

    2023
    Red de venganza (2023) REMUX 1080p Latino

    1h 25m 2023

    Descargar Red de venganza (2023) REMUX 1080p Latino. Analiza los problemas que surgen entre una madre...

    Director: Amy Redford

    Género: Drama

    Actores: Summer Phoenix

  • Recuerdos Mortales (2024) WEB-DL 1080p Latino

    Recuerdos Mortales (2024) WEB-DL 1080p Latino

    2024
    Recuerdos Mortales (2024) WEB-DL 1080p Latino

    1h 52m 2024

    Descargar Recuerdos Mortales (2024) WEB-DL 1080p Latino. Después de someterse a un tratamiento de vanguardia...

    Director: Adam Cooper

    Género: Crimen

    Actores: Tommy Flanagan

descargar Juego de Tronos (2012) Segunda Temporada Full HD 1080p Latino – CMHDD Full 1080p 1080p gratis, Juego de Tronos (2012) Segunda Temporada Full HD 1080p Latino – CMHDD Full 1080p mega 1 link, Juego de Tronos (2012) Segunda Temporada Full HD 1080p Latino – CMHDD Full 1080p pelicula completa, descargar Juego de Tronos (2012) Segunda Temporada Full HD 1080p Latino – CMHDD Full 1080p gratis en mega.

Juego de Tronos (2012) Segunda Temporada Full HD 1080p Latino – CMHDD pelicula full hd, Juego de Tronos (2012) Segunda Temporada Full HD 1080p Latino – CMHDD mega latino, Juego de Tronos (2012) Segunda Temporada Full HD 1080p Latino – CMHDD 4k latino, Juego de Tronos (2012) Segunda Temporada Full HD 1080p Latino – CMHDD pelicula completa, Juego de Tronos (2012) Segunda Temporada Full HD 1080p Latino – CMHDD descargar gratis, descargar Juego de Tronos (2012) Segunda Temporada Full HD 1080p Latino – CMHDD pelicula latino, Juego de Tronos (2012) Segunda Temporada Full HD 1080p Latino – CMHDD 1 link mega, Juego de Tronos (2012) Segunda Temporada Full HD 1080p Latino – CMHDD 1 link google drive, Juego de Tronos (2012) Segunda Temporada Full HD 1080p Latino – CMHDD hd 1080p latino.
Comentarios 0