×

¿Problemas para descargar con Mozilla, EDGE? Deshabilita la opción "Abrir vinculos en una pestaña nueva" tal como lo muestra ésta imagen.

Juego De Tronos (2011) Primera Temporada Full HD 1080p Latino – CMHDD

449 vistas

Información de Juego De Tronos (2011) Primera Temporada Full HD 1080p Latino – CMHDD

Datos de la película

  • Calidad: Full 1080p
  • Audio: Se especifica abajo de la Sinopsis
  • Subtitulos: Español Latino PGS
  • Resolución: 1920x1080p
  • Formato: MKV
  • Codec: H.264
  • Encoder: Dracarys
  • Mediainfo: Clic para Mostrar Datos Ver
  • Format                      : Matroska
    Format version              : Version 4
    File size                   : 5.73 GiB
    Duration                    : 1 h 1 min
    Overall bit rate mode       : Variable
    Overall bit rate            : 13.3 Mb/s
    Movie name                  : Juego De Tronos [S1E01] (2011) Full HD 1080p Latino - CMHDD
    Encoded date                : UTC 2021-10-27 01:27:37
    Writing application         : mkvmerge v17.0.0 ('Be Ur Friend') 64-bit
    Writing library             : libebml v1.3.5 + libmatroska v1.4.8

    Video
    ID                          : 1
    Format                      : AVC
    Format/Info                 : Advanced Video Codec
    Format profile              : High@L4.1
    Format settings             : CABAC / 4 Ref Frames
    Format settings, CABAC      : Yes
    Format settings, Reference  : 4 frames
    Codec ID                    : V_MPEG4/ISO/AVC
    Duration                    : 1 h 1 min
    Bit rate                    : 7 398 kb/s
    Width                       : 1 920 pixels
    Height                      : 1 080 pixels
    Display aspect ratio        : 16:9
    Frame rate mode             : Constant
    Frame rate                  : 23.976 (24000/1001) FPS
    Color space                 : YUV
    Chroma subsampling          : 4:2:0
    Bit depth                   : 8 bits
    Scan type                   : Progressive
    Bits/(Pixel*Frame)          : 0.149
    Stream size                 : 3.19 GiB (56%)
    Writing library             : x264 core 163 r3059 b684ebe0
    Encoding settings           : cabac=1 / ref=4 / deblock=1:0:0 / analyse=0x3:0x133 / me=tesa / subme=11 / psy=1 / psy_rd=1.00:0.00 / mixed_ref=1 / me_range=24 / chroma_me=1 / trellis=2 / 8x8dct=1 / cqm=0 / deadzone=21,11 / fast_pskip=0 / chroma_qp_offset=-2 / threads=24 / lookahead_threads=6 / sliced_threads=0 / nr=0 / decimate=1 / interlaced=0 / bluray_compat=0 / constrained_intra=0 / bframes=16 / b_pyramid=2 / b_adapt=2 / b_bias=0 / direct=3 / weightb=1 / open_gop=0 / weightp=2 / keyint=240 / keyint_min=24 / scenecut=40 / intra_refresh=0 / rc_lookahead=60 / rc=crf / mbtree=1 / crf=20.0 / qcomp=0.60 / qpmin=0 / qpmax=69 / qpstep=4 / vbv_maxrate=62500 / vbv_bufsize=78125 / crf_max=0.0 / nal_hrd=none / filler=0 / ip_ratio=1.40 / aq=1:1.00
    Default                     : Yes
    Forced                      : No
    Color range                 : Limited
    Color primaries             : BT.709
    Transfer characteristics    : BT.709
    Matrix coefficients         : BT.709

    Audio #1
    ID                          : 2
    Format                      : DTS
    Format/Info                 : Digital Theater Systems
    Codec ID                    : A_DTS
    Duration                    : 1 h 1 min
    Bit rate                    : 768 kb/s
    Channel(s)                  : 2 channels
    Sampling rate               : 48.0 kHz
    Frame rate                  : 93.750 FPS (512 SPF)
    Bit depth                   : 24 bits
    Stream size                 : 338 MiB (6%)
    Language                    : Spanish
    Default                     : Yes
    Forced                      : No

    Audio #2
    ID                          : 3
    Format                      : MLP FBA 16-ch
    Format/Info                 : Meridian Lossless Packing FBA with 16-channel presentation
    Commercial name             : Dolby TrueHD with Dolby Atmos
    Codec ID                    : A_TRUEHD
    Duration                    : 1 h 1 min
    Bit rate mode               : Variable
    Bit rate                    : 5 057 kb/s
    Maximum bit rate            : 7 887 kb/s
    Channel(s)                  : 8 channels
    Channel layout              : L R C LFE Ls Rs Lb Rb
    Sampling rate               : 48.0 kHz
    Frame rate                  : 1 200.000 FPS (40 SPF)
    Compression mode            : Lossless
    Stream size                 : 2.18 GiB (38%)
    Language                    : English
    Default                     : No
    Forced                      : No
    Number of dynamic objects   : 11
    Bed channel count           : 1 channel
    Bed channel configuration   : LFE

    Text
    ID                          : 4
    Format                      : PGS
    Muxing mode                 : zlib
    Codec ID                    : S_HDMV/PGS
    Codec ID/Info               : Picture based subtitle format used on BDs/HD-DVDs
    Duration                    : 58 min 29 s
    Bit rate                    : 31.8 kb/s
    Count of elements           : 1104
    Stream size                 : 13.3 MiB (0%)
    Language                    : Spanish
    Default                     : No
    Forced                      : No

  • Peso: 46.9 GiB

Sinopsis

Juego de Tronos es una serie de televisión de drama y fantasía creada para la HBO por David Benioff y D. B. Weiss. Es una adaptación de la sga de novelas de fantasía Canción de Hielo y Fuego de George R. R. Martin. La primera de las novelas es la que da nombre a la serie.

La serie, ambientada en los continentes ficticios de Westeros y Essos al final de un verano de una decada de duración, entrelaza varias lneas argumentales. La primera sigue a los miembros de varias casas nobles inmersos en una guerra civil por conseguir el Trono de Hierro de los Siete Reinos. La segunda trata sobre la creciente amenaza de un inminente invierno y sobre las temibles criaturas del norte. La tercera relata los esfuerzos por reclamar el trono de los últimos miembros exiliados de una dinastía destronada. A pesar de sus personajes moralmente ambiguos, la serie profundiza en los problemas de la jerarquía social, religión, lealtad, corrupción, sexo, guerra civil, crimen y castigo.

 

Latino: DTS 2.0  –  Ingles: TrueHD 7.1

Ficha técnica

Video trailer de la película

Enlaces de descarga

Rip de Bluray

Descargar Juego De Tronos (2011) Primera Temporada Full HD 1080p Latino – CMHDD




Aportes de DPeliculasHDmega la pass es:dpeliculashdmega.org Aportes de CinemaniaHD la pass es:cinemaniahdd.com

Películas relacionadas

descargar Juego De Tronos (2011) Primera Temporada Full HD 1080p Latino – CMHDD Full 1080p 1080p gratis, Juego De Tronos (2011) Primera Temporada Full HD 1080p Latino – CMHDD Full 1080p mega 1 link, Juego De Tronos (2011) Primera Temporada Full HD 1080p Latino – CMHDD Full 1080p pelicula completa, descargar Juego De Tronos (2011) Primera Temporada Full HD 1080p Latino – CMHDD Full 1080p gratis en mega.

Juego De Tronos (2011) Primera Temporada Full HD 1080p Latino – CMHDD pelicula full hd, Juego De Tronos (2011) Primera Temporada Full HD 1080p Latino – CMHDD mega latino, Juego De Tronos (2011) Primera Temporada Full HD 1080p Latino – CMHDD 4k latino, Juego De Tronos (2011) Primera Temporada Full HD 1080p Latino – CMHDD pelicula completa, Juego De Tronos (2011) Primera Temporada Full HD 1080p Latino – CMHDD descargar gratis, descargar Juego De Tronos (2011) Primera Temporada Full HD 1080p Latino – CMHDD pelicula latino, Juego De Tronos (2011) Primera Temporada Full HD 1080p Latino – CMHDD 1 link mega, Juego De Tronos (2011) Primera Temporada Full HD 1080p Latino – CMHDD 1 link google drive, Juego De Tronos (2011) Primera Temporada Full HD 1080p Latino – CMHDD hd 1080p latino.
Comentarios 0