Juego De Tronos (2011-2019) Serie Completa 4K HDR BDRip Latino – CMHDD

36 vistas
1 estrella2 estrellas3 estrellas4 estrellas5 estrellas (2 votos, promedio: 5,00 de 5)
Cargando...

Información de Juego De Tronos (2011-2019) Serie Completa 4K HDR BDRip Latino – CMHDD

Datos de la película

  • Calidad: 4K HDR
  • Audio: Se especifica abajo de la Sinopsis
  • Subtitulos: Español Latino PGS
  • Resolución: 3840x2160p
  • Formato: MKV
  • Codec: H.264
  • Encoder: Dracarys
  • Mediainfo: Clic para Mostrar Datos Ver
  • Format                      : Matroska
    Format version              : Version 4
    File size                   : 5.79 GiB
    Duration                    : 1 h 1 min
    Overall bit rate            : 13.4 Mb/s
    Movie name                  : Juego De Tronos (2011) [S01E01] 4K BDRip Latino – CMHDD
    Encoded date                : UTC 2021-01-08 02:39:25
    Writing application         : mkvmerge v51.0.0 ('I Wish') 64-bit
    Writing library             : libebml v1.4.0 + libmatroska v1.6.2 / Lavf58.45.100
    IMDB                        : tt0944947

    Video
    ID                          : 1
    Format                      : HEVC
    Format/Info                 : High Efficiency Video Coding
    Format profile              : Main 10@L5.1@Main
    HDR format                  : SMPTE ST 2086, HDR10 compatible
    Codec ID                    : V_MPEGH/ISO/HEVC
    Duration                    : 1 h 1 min
    Bit rate                    : 11.6 Mb/s
    Width                       : 3 840 pixels
    Height                      : 2 160 pixels
    Display aspect ratio        : 16:9
    Frame rate mode             : Constant
    Frame rate                  : 23.976 (24000/1001) FPS
    Color space                 : YUV
    Chroma subsampling          : 4:2:0 (Type 2)
    Bit depth                   : 10 bits
    Bits/(Pixel*Frame)          : 0.059
    Stream size                 : 5.01 GiB (87%)
    Writing library             : x265 3.4+22-772b3229d157:[Linux][GCC 7.5.0][64 bit] 10bit
    Encoding settings           : cpuid=1111039 / frame-threads=3 / numa-pools=8 / wpp / no-pmode / no-pme / no-psnr / no-ssim / log-level=2 / input-csp=1 / input-res=3840x2160 / interlace=0 / total-frames=0 / level-idc=51 / high-tier=1 / uhd-bd=0 / ref=3 / no-allow-non-conformance / repeat-headers / annexb / aud / hrd / info / hash=0 / no-temporal-layers / open-gop / min-keyint=23 / keyint=250 / gop-lookahead=0 / bframes=4 / b-adapt=2 / b-pyramid / bframe-bias=0 / rc-lookahead=20 / lookahead-slices=8 / scenecut=40 / hist-scenecut=0 / radl=0 / no-splice / no-intra-refresh / ctu=64 / min-cu-size=8 / no-rect / no-amp / max-tu-size=32 / tu-inter-depth=1 / tu-intra-depth=1 / limit-tu=0 / rdoq-level=1 / dynamic-rd=0.00 / no-ssim-rd / signhide / no-tskip / nr-intra=0 / nr-inter=0 / no-constrained-intra / strong-intra-smoothing / max-merge=3 / limit-refs=1 / no-limit-modes / me=3 / subme=3 / merange=57 / temporal-mvp / no-frame-dup / no-hme / weightp / no-weightb / no-analyze-src-pics / deblock=-3:-3 / no-sao / no-sao-non-deblock / rd=3 / selective-sao=0 / early-skip / rskip / no-fast-intra / no-tskip-fast / no-cu-lossless / b-intra / no-splitrd-skip / rdpenalty=0 / psy-rd=1.00 / psy-rdoq=3.00 / no-rd-refine / no-lossless / cbqpoffs=0 / crqpoffs=0 / rc=crf / crf=16.0 / qcomp=0.60 / qpstep=4 / stats-write=0 / stats-read=0 / vbv-maxrate=12000 / vbv-bufsize=24000 / vbv-init=0.9 / min-vbv-fullness=50.0 / max-vbv-fullness=80.0 / crf-max=0.0 / crf-min=0.0 / ipratio=1.40 / pbratio=1.30 / aq-mode=3 / aq-strength=1.00 / cutree / zone-count=0 / no-strict-cbr / qg-size=32 / no-rc-grain / qpmax=69 / qpmin=0 / no-const-vbv / sar=1 / overscan=0 / videoformat=5 / range=0 / colorprim=9 / transfer=16 / colormatrix=9 / chromaloc=1 / chromaloc-top=2 / chromaloc-bottom=2 / display-window=0 / master-display=G(8500,39850)B(6550,2300)R(35400,14600)WP(15635,16450)L(10000000,020) / cll=0,0 / min-luma=0 / max-luma=1023 / log2-max-poc-lsb=8 / vui-timing-info / vui-hrd-info / slices=1 / no-opt-qp-pps / no-opt-ref-list-length-pps / no-multi-pass-opt-rps / scenecut-bias=0.05 / hist-threshold=0.03 / no-opt-cu-delta-qp / no-aq-motion / hdr10 / hdr10-opt / no-dhdr10-opt / no-idr-recovery-sei / analysis-reuse-level=0 / analysis-save-reuse-level=0 / analysis-load-reuse-level=0 / scale-factor=0 / refine-intra=0 / refine-inter=0 / refine-mv=1 / refine-ctu-distortion=0 / no-limit-sao / ctu-info=0 / no-lowpass-dct / refine-analysis-type=0 / copy-pic=1 / max-ausize-factor=1.0 / no-dynamic-refine / no-single-sei / no-hevc-aq / no-svt / no-field / qp-adaptation-range=1.00 / no-scenecut-aware-qpconformance-window-offsets / right=0 / bottom=0 / decoder-max-rate=0 / no-vbv-live-multi-pass
    Language                    : English
    Default                     : No
    Forced                      : No
    Color range                 : Limited
    Color primaries             : BT.2020
    Transfer characteristics    : PQ
    Matrix coefficients         : BT.2020 non-constant
    Mastering display color pri : BT.2020
    Mastering display luminance : min: 0.0020 cd/m2, max: 1000 cd/m2

    Audio #1
    ID                          : 2
    Format                      : DTS
    Format/Info                 : Digital Theater Systems
    Codec ID                    : A_DTS
    Duration                    : 1 h 1 min
    Bit rate mode               : Constant
    Bit rate                    : 768 kb/s
    Channel(s)                  : 2 channels
    Channel layout              : Lt Rt
    Sampling rate               : 48.0 kHz
    Frame rate                  : 93.750 FPS (512 SPF)
    Bit depth                   : 24 bits
    Compression mode            : Lossy
    Delay relative to video     : 2 s 0 ms
    Stream size                 : 338 MiB (6%)
    Language                    : Spanish
    Default                     : Yes
    Forced                      : No

    Audio #2
    ID                          : 3
    Format                      : E-AC-3
    Format/Info                 : Enhanced AC-3
    Commercial name             : Dolby Digital Plus
    Codec ID                    : A_EAC3
    Duration                    : 1 h 1 min
    Bit rate mode               : Constant
    Bit rate                    : 1 024 kb/s
    Channel(s)                  : 8 channels
    Channel layout              : L R C LFE Ls Rs Lb Rb
    Sampling rate               : 48.0 kHz
    Frame rate                  : 31.250 FPS (1536 SPF)
    Compression mode            : Lossy
    Stream size                 : 452 MiB (8%)
    Language                    : English
    Service kind                : Complete Main
    Default                     : No
    Forced                      : No

    Text
    ID                          : 4
    Format                      : PGS
    Muxing mode                 : zlib
    Codec ID                    : S_HDMV/PGS
    Codec ID/Info               : Picture based subtitle format used on BDs/HD-DVDs
    Duration                    : 58 min 29 s
    Bit rate                    : 31.7 kb/s
    Count of elements           : 1104
    Stream size                 : 13.3 MiB (0%)
    Language                    : Spanish
    Default                     : No
    Forced                      : No

    Menu
    00:00:00.000                : :Chapter 1
    00:00:08.008                : :Chapter 2
    00:07:18.438                : :Chapter 3
    00:08:58.538                : :Chapter 4
    00:18:16.512                : :Chapter 5
    00:28:48.560                : :Chapter 6
    00:39:37.584                : :Chapter 7
    00:50:02.041                : :Chapter 8
    01:00:34.631                : :Chapter 9

  • Peso: 386 GiB Total

Sinopsis

En una tierra donde los veranos duran décadas y los inviernos pueden durar toda una vida, los problemas acechan. Desde las maquinaciones del sur a las salvajes tierras del este, pasando por el helado norte y el milenario muro que protege el reino de las fuerzas tenebrosas, dos poderosas familias mantienen un enfrentamiento letal por gobernar los Siete Reinos de Poniente. Mientras la traición, la lujuria y las fuerzas sobrenaturales sacuden los pilares de los reinos, la sangrienta batalla por el trono de Hierro tendrá consecuencias imprevistas y trascendentales. El invierno se acerca. Que empiece ‘Juego de tronos’.

Latino: AC3 + DTS 2.0 – Ingles: E-AC3 7.1

Ficha técnica

Video trailer de la película

Enlaces de descarga

Rip de Bluray

Descargar Juego De Tronos (2011-2019) Serie Completa 4K HDR BDRip Latino – CMHDD




Aportes de DPeliculasHDmega la pass es:dpeliculashdmega.org Aportes de CinemaniaHD la pass es:cinemaniahdd.com

Películas relacionadas

Comentarios 2
  • jorge - 14 enero, 2021

    Excelente aporte solo que el capitulo 1 y 2 de la temporada 2 estan mal, creo que el audio del capitulo 1 es del 2 y viceversa. voy a checar los demas haber si no son todos!!

    • Dracarys - 14 enero, 2021

      Arreglado