×

¿Problemas para descargar con Mozilla, EDGE? Deshabilita la opción "Abrir vinculos en una pestaña nueva" tal como lo muestra ésta imagen.

Judy (2019) 1080p Latino

279 vistas

Información de Judy (2019) 1080p Latino

Datos de la película

  • Calidad: 1080p
  • Audio: Español Latino AC3 2.0 iTUNES - Ingles AC3 5.1 BLURAY
  • Subtitulos: Español Latino SRT- FORZADOS SRT
  • Resolución: 1920x804p
  • Formato: MKV
  • Codec: H.264
  • Encoder: CinemaniaHD
  • Mediainfo: Clic para Mostrar Datos Ver
  • Judy (2019) 1080p Latino.mkv
    Format                      : Matroska
    Format version              : Version 4
    File size                   : 3.39 GiB
    Duration                    : 1 h 58 min
    Overall bit rate            : 4 098 kb/s
    Encoded date                : UTC 2020-06-10 00:29:59
    Writing application         : mkvmerge v46.0.0 ('No Deeper Escape') 64-bit
    Writing library             : libebml v1.3.10 + libmatroska v1.5.2 / Lavf58.29.100

    Video
    ID                          : 1
    Format                      : AVC
    Format/Info                 : Advanced Video Codec
    Format profile              : Main@L4
    Format settings             : CABAC / 5 Ref Frames
    Format settings, CABAC      : Yes
    Format settings, Reference  : 5 frames
    Codec ID                    : V_MPEG4/ISO/AVC
    Duration                    : 1 h 58 min
    Bit rate                    : 3 500 kb/s
    Width                       : 1 920 pixels
    Height                      : 804 pixels
    Display aspect ratio        : 2.40:1
    Frame rate mode             : Constant
    Frame rate                  : 23.976 (24000/1001) FPS
    Color space                 : YUV
    Chroma subsampling          : 4:2:0
    Bit depth                   : 8 bits
    Scan type                   : Progressive
    Bits/(Pixel*Frame)          : 0.095
    Stream size                 : 2.80 GiB (83%)
    Writing library             : x264 core 157 r2935 545de2f
    Encoding settings           : cabac=1 / ref=5 / deblock=1:0:0 / analyse=0x1:0x111 / me=hex / subme=8 / psy=1 / psy_rd=1.00:0.00 / mixed_ref=1 / me_range=16 / chroma_me=1 / trellis=2 / 8x8dct=0 / cqm=0 / deadzone=21,11 / fast_pskip=1 / chroma_qp_offset=-2 / threads=24 / lookahead_threads=4 / sliced_threads=0 / nr=0 / decimate=1 / interlaced=0 / bluray_compat=0 / constrained_intra=0 / bframes=3 / b_pyramid=2 / b_adapt=1 / b_bias=0 / direct=3 / weightb=1 / open_gop=0 / weightp=2 / keyint=240 / keyint_min=24 / scenecut=40 / intra_refresh=0 / rc_lookahead=50 / rc=abr / mbtree=1 / bitrate=3500 / ratetol=1.0 / qcomp=0.60 / qpmin=0 / qpmax=69 / qpstep=4 / vbv_maxrate=20000 / vbv_bufsize=25000 / nal_hrd=none / filler=0 / ip_ratio=1.40 / aq=1:1.00
    Default                     : Yes
    Forced                      : No
    Color range                 : Limited
    Color primaries             : BT.709
    Transfer characteristics    : BT.709
    Matrix coefficients         : BT.709

    Audio #1
    ID                          : 2
    Format                      : AC-3
    Format/Info                 : Audio Coding 3
    Commercial name             : Dolby Digital
    Codec ID                    : A_AC3
    Duration                    : 1 h 58 min
    Bit rate mode               : Constant
    Bit rate                    : 256 kb/s
    Channel(s)                  : 2 channels
    Channel layout              : L R
    Sampling rate               : 48.0 kHz
    Frame rate                  : 31.250 FPS (1536 SPF)
    Compression mode            : Lossy
    Delay relative to video     : -5 ms
    Stream size                 : 217 MiB (6%)
    Language                    : Spanish
    Service kind                : Complete Main
    Default                     : Yes
    Forced                      : No

    Audio #2
    ID                          : 3
    Format                      : AC-3
    Format/Info                 : Audio Coding 3
    Commercial name             : Dolby Digital
    Codec ID                    : A_AC3
    Duration                    : 1 h 58 min
    Bit rate mode               : Constant
    Bit rate                    : 448 kb/s
    Channel(s)                  : 6 channels
    Channel layout              : L R C LFE Ls Rs
    Sampling rate               : 48.0 kHz
    Frame rate                  : 31.250 FPS (1536 SPF)
    Compression mode            : Lossy
    Delay relative to video     : -5 ms
    Stream size                 : 379 MiB (11%)
    Title                       : DTS-HD.MA5.1
    Language                    : English
    Service kind                : Complete Main
    Default                     : No
    Forced                      : No

    Text #1
    ID                          : 4
    Format                      : UTF-8
    Codec ID                    : S_TEXT/UTF8
    Codec ID/Info               : UTF-8 Plain Text
    Duration                    : 1 h 13 min
    Bit rate                    : 10 b/s
    Count of elements           : 172
    Stream size                 : 5.92 KiB (0%)
    Language                    : Spanish
    Default                     : Yes
    Forced                      : No

    Text #2
    ID                          : 5
    Format                      : UTF-8
    Codec ID                    : S_TEXT/UTF8
    Codec ID/Info               : UTF-8 Plain Text
    Duration                    : 1 h 51 min
    Bit rate                    : 62 b/s
    Count of elements           : 1581
    Stream size                 : 51.1 KiB (0%)
    Language                    : Spanish
    Default                     : No
    Forced                      : No

    Menu
    00:00:00.000                : :Chapter 1
    00:05:35.335                : :Chapter 2
    00:13:02.782                : :Chapter 3
    00:21:22.281                : :Chapter 4
    00:28:03.682                : :Chapter 5
    00:35:43.141                : :Chapter 6
    00:45:33.731                : :Chapter 7
    00:50:26.023                : :Chapter 8
    00:57:15.432                : :Chapter 9
    01:04:23.485                : :Chapter 10
    01:12:23.339                : :Chapter 11
    01:20:22.818                : :Chapter 12
    01:30:48.443                : :Chapter 13
    01:35:09.454                : :Chapter 14
    01:40:34.028                : :Chapter 15
    01:51:18.672                : :Chapter 16

  • Peso: 3.39 GiB

Sinopsis

El invierno de 1968 y la leyenda del mundo del espectáculo Judy Garland llega a Swinging London para realizar una carrera de cinco semanas con entradas agotadas en The Talk of the Town. Han pasado 30 años desde que se disparó al estrellato mundial en El mago de Oz, pero si su voz se ha debilitado, su intensidad dramática solo ha aumentado. Mientras se prepara para el espectáculo, luchan con la gerencia, encanta a los músicos y recuerda con amigos y admiradores, su ingenio y calidez brillan. Incluso sus sueños de amor parecen intactos mientras se embarca en un torbellino de romance con Mickey Deans, su futuro quinto marido.

Ficha técnica

Video trailer de la película

Enlaces de descarga

Aportes de DPeliculasHDmega la pass es:dpeliculashdmega.org Aportes de CinemaniaHD la pass es:cinemaniahdd.com
Guardado en : Drama , HD 1080p

Películas relacionadas

descargar Judy (2019) 1080p Latino 1080p 1080p gratis, Judy (2019) 1080p Latino 1080p mega 1 link, Judy (2019) 1080p Latino 1080p pelicula completa, descargar Judy (2019) 1080p Latino 1080p gratis en mega.

Judy (2019) 1080p Latino pelicula full hd, Judy (2019) 1080p Latino mega latino, Judy (2019) 1080p Latino 4k latino, Judy (2019) 1080p Latino pelicula completa, Judy (2019) 1080p Latino descargar gratis, descargar Judy (2019) 1080p Latino pelicula latino, Judy (2019) 1080p Latino 1 link mega, Judy (2019) 1080p Latino 1 link google drive, Judy (2019) 1080p Latino hd 1080p latino.
Comentarios 0