×

¿Problemas para descargar con Mozilla, EDGE? Deshabilita la opción "Abrir vinculos en una pestaña nueva" tal como lo muestra ésta imagen.

Juan Luis Guerra 4.40: Entre Mar Y Palmeras (2021) HMAX WEB-DL 1080p Latino

200 vistas

Información de Juan Luis Guerra 4.40: Entre Mar Y Palmeras (2021) HMAX WEB-DL 1080p Latino

Datos de la película

  • Calidad: WEBDL
  • Audio: Español Latino AC3 2.0
  • Subtitulos: Español Latino SRT
  • Resolución: 1920x1080
  • Formato: MKV
  • Codec: H.264
  • Encoder: cinemaniahdd
  • Mediainfo: Clic para Mostrar Datos Ver
  • Juan Luis Guerra 4.40. Entre Mar y Palmeras (2021) HMAX WEB-DL 1080p Latino [CNMNHDD].mkv
    Format                      : Matroska
    Format version              : Version 4
    File size                   : 4.26 GiB
    Duration                    : 1 h 10 min
    Overall bit rate mode       : Variable
    Overall bit rate            : 8 625 kb/s
    Movie name                  : Juan Luis Guerra 4.40 (2021) - CinemaniaHDD.Net
    Encoded date                : UTC 2021-06-04 02:05:10
    Writing application         : mkvmerge v56.1.0 ('My Friend') 64-bit
    Writing library             : libebml v1.4.2 + libmatroska v1.6.4

    Video
    ID                          : 1
    Format                      : AVC
    Format/Info                 : Advanced Video Codec
    Format profile              : High@L4
    Format settings             : CABAC / 4 Ref Frames
    Format settings, CABAC      : Yes
    Format settings, Reference  : 4 frames
    Codec ID                    : V_MPEG4/ISO/AVC
    Duration                    : 1 h 10 min
    Bit rate mode               : Variable
    Bit rate                    : 8 250 kb/s
    Maximum bit rate            : 12.4 Mb/s
    Width                       : 1 920 pixels
    Height                      : 1 080 pixels
    Display aspect ratio        : 16:9
    Frame rate mode             : Constant
    Frame rate                  : 23.976 (24000/1001) FPS
    Color space                 : YUV
    Chroma subsampling          : 4:2:0
    Bit depth                   : 8 bits
    Scan type                   : Progressive
    Bits/(Pixel*Frame)          : 0.166
    Stream size                 : 4.07 GiB (96%)
    Title                       : CinemaniaHDD
    Writing library             : x264 core 157 r2965 861cec4
    Encoding settings           : cabac=1 / ref=4 / deblock=1:0:0 / analyse=0x3:0x113 / me=hex / subme=7 / psy=1 / psy_rd=1.00:0.00 / mixed_ref=1 / me_range=16 / chroma_me=1 / trellis=1 / 8x8dct=1 / cqm=0 / deadzone=21,11 / fast_pskip=1 / chroma_qp_offset=-2 / threads=34 / lookahead_threads=5 / sliced_threads=0 / nr=0 / decimate=1 / interlaced=0 / bluray_compat=0 / constrained_intra=0 / bframes=3 / b_pyramid=2 / b_adapt=1 / b_bias=0 / direct=1 / weightb=1 / open_gop=0 / weightp=2 / keyint=96 / keyint_min=96 / scenecut=40 / intra_refresh=0 / rc_lookahead=40 / rc=2pass / mbtree=1 / bitrate=8250 / ratetol=1.0 / qcomp=0.60 / qpmin=0 / qpmax=69 / qpstep=4 / cplxblur=20.0 / qblur=0.5 / vbv_maxrate=12375 / vbv_bufsize=6187 / nal_hrd=vbr / filler=0 / ip_ratio=1.40 / aq=1:1.00
    Language                    : Spanish
    Default                     : Yes
    Forced                      : No
    Color range                 : Limited
    Color primaries             : BT.709
    Transfer characteristics    : BT.709
    Matrix coefficients         : BT.709

    Audio
    ID                          : 2
    Format                      : AC-3
    Format/Info                 : Audio Coding 3
    Commercial name             : Dolby Digital
    Codec ID                    : A_AC3
    Duration                    : 1 h 10 min
    Bit rate mode               : Constant
    Bit rate                    : 384 kb/s
    Channel(s)                  : 2 channels
    Channel layout              : L R
    Sampling rate               : 48.0 kHz
    Frame rate                  : 31.250 FPS (1536 SPF)
    Compression mode            : Lossy
    Stream size                 : 194 MiB (4%)
    Title                       : Español latino [CinemaniaHDD]
    Language                    : Spanish
    Service kind                : Complete Main
    Default                     : Yes
    Forced                      : No

    Text
    ID                          : 3
    Format                      : UTF-8
    Codec ID                    : S_TEXT/UTF8
    Codec ID/Info               : UTF-8 Plain Text
    Duration                    : 1 h 7 min
    Bit rate                    : 97 b/s
    Count of elements           : 1744
    Stream size                 : 48.3 KiB (0%)
    Title                       : Español latino [CC] [CinemaniaHDD]
    Language                    : Spanish
    Default                     : No
    Forced                      : No

     

  • Peso: 4.26 GiB

Sinopsis

El reconocido compositor, músico, productor y cantante dominicano Juan Luis Guerra ofrece un concierto histórico desde las hermosas y exuberantes playas de Miches, ubicadas en la región oriente de la República Dominicana.

Ficha técnica

  • Titulo original: Juan Luis Guerra 4.40: Entre Mar Y Palmeras
  • Fecha de lanzamiento: 03-06-2021
  • Director: Jean Guerra
  • Género: Música

Video trailer de la película

Enlaces de descarga

Rip de Bluray

Descargar Juan Luis Guerra 4.40: Entre Mar Y Palmeras (2021) HMAX WEB-DL 1080p Latino




Aportes de DPeliculasHDmega la pass es:dpeliculashdmega.org Aportes de CinemaniaHD la pass es:cinemaniahdd.com
Guardado en : Música

Películas relacionadas

  • 8 Mile (2002) REMUX 4K HDR Latino – CMHDD

    8 Mile (2002) REMUX 4K HDR Latino – CMHDD

    2002
    8 Mile (2002) REMUX 4K HDR Latino – CMHDD

    1h 50m 2002

    Detroit, 1995. La promesa de potencia industrial se ha transformado en un hervidero de conflictos económicos...

    Director: Michael J. Moore

    Género: Drama

    Actores: Xzibit

  • TÁR (2022) HD 1080p Latino

    TÁR (2022) HD 1080p Latino

    2022
    TÁR (2022) HD 1080p Latino

    2h 38m 2022

    Descargar TÁR (2022) HD 1080p Latino. La mundialmente famosa Lydia Tár está a solo unos días de grabar...

    Director: Todd Field

    Género: Drama

    Actores: Vivian Full

  • TÁR (2022) PLACEBO Full HD 1080p Latino

    TÁR (2022) PLACEBO Full HD 1080p Latino

    2022
    TÁR (2022) PLACEBO Full HD 1080p Latino

    2h 38m 2022

    Descargar TÁR (2022) PLACEBO Full HD 1080p Latino. La mundialmente famosa Lydia Tár está a solo unos...

    Director: Todd Field

    Género: Drama

    Actores: Vivian Full

  • TÁR (2022) REMUX 1080p Latino – CMHDD

    TÁR (2022) REMUX 1080p Latino – CMHDD

    2022
    TÁR (2022) REMUX 1080p Latino – CMHDD

    2h 38m 2022

    Descargar TÁR (2022) REMUX 1080p Latino - CMHDD. La mundialmente famosa Lydia Tár está a solo unos...

    Director: Todd Field

    Género: Drama

    Actores: Vivian Full

descargar Juan Luis Guerra 4.40: Entre Mar Y Palmeras (2021) HMAX WEB-DL 1080p Latino WEBDL 1080p gratis, Juan Luis Guerra 4.40: Entre Mar Y Palmeras (2021) HMAX WEB-DL 1080p Latino WEBDL mega 1 link, Juan Luis Guerra 4.40: Entre Mar Y Palmeras (2021) HMAX WEB-DL 1080p Latino WEBDL pelicula completa, descargar Juan Luis Guerra 4.40: Entre Mar Y Palmeras (2021) HMAX WEB-DL 1080p Latino WEBDL gratis en mega.

Juan Luis Guerra 4.40: Entre Mar Y Palmeras (2021) HMAX WEB-DL 1080p Latino pelicula full hd, Juan Luis Guerra 4.40: Entre Mar Y Palmeras (2021) HMAX WEB-DL 1080p Latino mega latino, Juan Luis Guerra 4.40: Entre Mar Y Palmeras (2021) HMAX WEB-DL 1080p Latino 4k latino, Juan Luis Guerra 4.40: Entre Mar Y Palmeras (2021) HMAX WEB-DL 1080p Latino pelicula completa, Juan Luis Guerra 4.40: Entre Mar Y Palmeras (2021) HMAX WEB-DL 1080p Latino descargar gratis, descargar Juan Luis Guerra 4.40: Entre Mar Y Palmeras (2021) HMAX WEB-DL 1080p Latino pelicula latino, Juan Luis Guerra 4.40: Entre Mar Y Palmeras (2021) HMAX WEB-DL 1080p Latino 1 link mega, Juan Luis Guerra 4.40: Entre Mar Y Palmeras (2021) HMAX WEB-DL 1080p Latino 1 link google drive, Juan Luis Guerra 4.40: Entre Mar Y Palmeras (2021) HMAX WEB-DL 1080p Latino hd 1080p latino.
Comentarios 0