×

¿Problemas para descargar con Mozilla, EDGE? Deshabilita la opción "Abrir vinculos en una pestaña nueva" tal como lo muestra ésta imagen.

JU-ON Origins (2020) Primera Temporada WEB-DL [NF] 1080p Latino – CMHDD

308 vistas

Información de JU-ON Origins (2020) Primera Temporada WEB-DL [NF] 1080p Latino – CMHDD

Datos de la película

  • Calidad: WEBDL
  • Audio: Español Latino E-AC3 5.1 Netflix - Japones E-AC3 5.1 Netflix
  • Subtitulos: Español Latino SRT- FORZADOS SRT
  • Resolución: 1920x1080p
  • Formato: MKV
  • Codec: H.264
  • Encoder: Dracarys
  • Mediainfo: Clic para Mostrar Datos Ver
  • Format                      : Matroska
    Format version              : Version 4
    File size                   : 1.09 GiB
    Duration                    : 28 min 22 s
    Overall bit rate mode       : Variable
    Overall bit rate            : 5 524 kb/s
    Movie name                  : JU-ON Origins (2020) [S01E01] WEB-DL 1080p Latino - CMHDD
    Encoded date                : UTC 2020-07-06 23:21:38
    Writing application         : mkvmerge v46.0.0 ('No Deeper Escape') 64-bit
    Writing library             : libebml v1.3.10 + libmatroska v1.5.2

    Video
    ID                          : 1
    Format                      : AVC
    Format/Info                 : Advanced Video Codec
    Format profile              : Main@L4
    Format settings             : CABAC / 3 Ref Frames
    Format settings, CABAC      : Yes
    Format settings, Reference  : 3 frames
    Codec ID                    : V_MPEG4/ISO/AVC
    Duration                    : 28 min 22 s
    Bit rate mode               : Variable
    Bit rate                    : 4 420 kb/s
    Maximum bit rate            : 6 630 kb/s
    Width                       : 1 920 pixels
    Height                      : 1 080 pixels
    Display aspect ratio        : 16:9
    Frame rate mode             : Constant
    Frame rate                  : 24.000 FPS
    Color space                 : YUV
    Chroma subsampling          : 4:2:0
    Bit depth                   : 8 bits
    Scan type                   : Progressive
    Bits/(Pixel*Frame)          : 0.089
    Stream size                 : 861 MiB (77%)
    Title                       : [Video]
    Writing library             : x264 core 148 r2717 0d2410d
    Encoding settings           : cabac=1 / ref=3 / deblock=1:0:0 / analyse=0x1:0x111 / me=umh / subme=10 / psy=1 / psy_rd=1.00:0.00 / mixed_ref=1 / me_range=24 / chroma_me=1 / trellis=2 / 8x8dct=0 / cqm=0 / deadzone=21,11 / fast_pskip=1 / chroma_qp_offset=-2 / threads=6 / lookahead_threads=1 / sliced_threads=0 / nr=0 / decimate=1 / interlaced=0 / bluray_compat=0 / stitchable=1 / constrained_intra=0 / bframes=2 / b_pyramid=0 / b_adapt=2 / b_bias=0 / direct=3 / weightb=1 / open_gop=0 / weightp=2 / keyint=250 / keyint_min=24 / scenecut=0 / intra_refresh=0 / rc_lookahead=48 / rc=2pass / mbtree=1 / bitrate=4420 / ratetol=1.0 / qcomp=0.50 / qpmin=6 / qpmax=51 / qpstep=4 / cplxblur=20.0 / qblur=0.5 / vbv_maxrate=6630 / vbv_bufsize=8840 / nal_hrd=vbr / filler=0 / ip_ratio=1.40 / aq=1:1.00
    Language                    : Japanese
    Default                     : Yes
    Forced                      : No

    Audio #1
    ID                          : 2
    Format                      : E-AC-3
    Format/Info                 : Enhanced AC-3
    Commercial name             : Dolby Digital Plus
    Codec ID                    : A_EAC3
    Duration                    : 28 min 22 s
    Bit rate mode               : Constant
    Bit rate                    : 640 kb/s
    Channel(s)                  : 6 channels
    Channel layout              : L R C LFE Ls Rs
    Sampling rate               : 48.0 kHz
    Frame rate                  : 31.250 FPS (1536 SPF)
    Compression mode            : Lossy
    Stream size                 : 130 MiB (12%)
    Language                    : Spanish
    Service kind                : Complete Main
    Default                     : Yes
    Forced                      : No

    Audio #2
    ID                          : 3
    Format                      : E-AC-3
    Format/Info                 : Enhanced AC-3
    Commercial name             : Dolby Digital Plus
    Codec ID                    : A_EAC3
    Duration                    : 28 min 22 s
    Bit rate mode               : Constant
    Bit rate                    : 640 kb/s
    Channel(s)                  : 6 channels
    Channel layout              : L R C LFE Ls Rs
    Sampling rate               : 48.0 kHz
    Frame rate                  : 31.250 FPS (1536 SPF)
    Compression mode            : Lossy
    Stream size                 : 130 MiB (12%)
    Language                    : Japanese
    Service kind                : Complete Main
    Default                     : No
    Forced                      : No

    Text #1
    ID                          : 4
    Format                      : UTF-8
    Codec ID                    : S_TEXT/UTF8
    Codec ID/Info               : UTF-8 Plain Text
    Duration                    : 27 min 40 s
    Bit rate                    : 1 b/s
    Count of elements           : 10
    Stream size                 : 327 Bytes (0%)
    Title                       : Forzados
    Language                    : Spanish
    Default                     : Yes
    Forced                      : Yes

    Text #2
    ID                          : 5
    Format                      : UTF-8
    Codec ID                    : S_TEXT/UTF8
    Codec ID/Info               : UTF-8 Plain Text
    Duration                    : 27 min 40 s
    Bit rate                    : 44 b/s
    Count of elements           : 337
    Stream size                 : 9.02 KiB (0%)
    Language                    : Spanish
    Default                     : No
    Forced                      : No
     

  • Peso: 7.2 GiB Total

Sinopsis

Ju-On: Origins, Ju-On Orígenes en España, es la serie de terror que nos cuenta qué es la maldición Ju-On: cuando una persona muere víctima de una intensa ira, nace una nueva maldición. Esta se instala en el lugar donde la persona ha muerto, o en los sitios donde la persona solía estar.

Todo aquel que se tope con la maldición, bien por haber entrado en un lugar maldito o por haber entrado en contacto con alguien ya maldito, resulta tremendamente afectado, lo cual supone el origen de otra nueva maldición, pudiendo así repartirse por otros lugares. El desenlace de la maldición es la muerte.

La maldición se ha originado en una casa en Nerima Tokyo. Fue en el momento en el que Takeo Saeki, convencido de que su mujer Kayako le era infiel con otro hombre, pusó fin a su vida de manera brutal, y también asesinó a su hijo Toshio y a su gato, movido por un ataque de celos. ¿Cuáles son las consecuencias de entrar en contacto con esta maldición?

Ficha técnica

Video trailer de la película

Enlaces de descarga

Rip de Bluray

Descargar JU-ON Origins (2020) Primera Temporada WEB-DL [NF] 1080p Latino – CMHDD




Aportes de DPeliculasHDmega la pass es:dpeliculashdmega.org Aportes de CinemaniaHD la pass es:cinemaniahdd.com
Guardado en : Drama , Misterio

Películas relacionadas

descargar JU-ON Origins (2020) Primera Temporada WEB-DL [NF] 1080p Latino – CMHDD WEBDL 1080p gratis, JU-ON Origins (2020) Primera Temporada WEB-DL [NF] 1080p Latino – CMHDD WEBDL mega 1 link, JU-ON Origins (2020) Primera Temporada WEB-DL [NF] 1080p Latino – CMHDD WEBDL pelicula completa, descargar JU-ON Origins (2020) Primera Temporada WEB-DL [NF] 1080p Latino – CMHDD WEBDL gratis en mega.

JU-ON Origins (2020) Primera Temporada WEB-DL [NF] 1080p Latino – CMHDD pelicula full hd, JU-ON Origins (2020) Primera Temporada WEB-DL [NF] 1080p Latino – CMHDD mega latino, JU-ON Origins (2020) Primera Temporada WEB-DL [NF] 1080p Latino – CMHDD 4k latino, JU-ON Origins (2020) Primera Temporada WEB-DL [NF] 1080p Latino – CMHDD pelicula completa, JU-ON Origins (2020) Primera Temporada WEB-DL [NF] 1080p Latino – CMHDD descargar gratis, descargar JU-ON Origins (2020) Primera Temporada WEB-DL [NF] 1080p Latino – CMHDD pelicula latino, JU-ON Origins (2020) Primera Temporada WEB-DL [NF] 1080p Latino – CMHDD 1 link mega, JU-ON Origins (2020) Primera Temporada WEB-DL [NF] 1080p Latino – CMHDD 1 link google drive, JU-ON Origins (2020) Primera Temporada WEB-DL [NF] 1080p Latino – CMHDD hd 1080p latino.
Comentarios 0