×

¿Problemas para descargar con Mozilla, EDGE? Deshabilita la opción "Abrir vinculos en una pestaña nueva" tal como lo muestra ésta imagen.

Jóvenes Brujas (1996) PLACEBO Full HD 1080p Latino

343 vistas

Información de Jóvenes Brujas (1996) PLACEBO Full HD 1080p Latino

Datos de la película

  • Calidad: Full 1080p
  • Audio: Español Latino AC3 2.0 DVD - Ingles DTS 5.1 BLURAY
  • Subtitulos: Español Latino SRT - Ingles SRT
  • Resolución: 1920x1080p
  • Formato: MKV
  • Codec: H.264
  • Encoder: Melkor
  • Mediainfo: Clic para Mostrar Datos Ver
  • Jovenes y Brujas (1996) PLACEBO Full HD 1080p Latino-CMHDD.mkv
    Format                      : Matroska
    Format version              : Version 4
    File size                   : 7.01 GiB
    Duration                    : 1 h 40 min
    Overall bit rate            : 9 933 kb/s
    Movie name                  : The Craft (1996) CinemaniaHDD.Net
    Encoded date                : UTC 2020-12-23 02:15:52
    Writing application         : mkvmerge v51.0.0 ('I Wish') 64-bit
    Writing library             : libebml v1.4.0 + libmatroska v1.6.2
    Attachments                 : CINEMANIAHD.png

    Video
    ID                          : 1
    Format                      : AVC
    Format/Info                 : Advanced Video Codec
    Format profile              : High@L4.1
    Format settings             : CABAC / 4 Ref Frames
    Format settings, CABAC      : Yes
    Format settings, Reference  : 4 frames
    Codec ID                    : V_MPEG4/ISO/AVC
    Duration                    : 1 h 40 min
    Bit rate                    : 8 165 kb/s
    Width                       : 1 920 pixels
    Height                      : 1 080 pixels
    Display aspect ratio        : 16:9
    Frame rate mode             : Constant
    Frame rate                  : 23.976 (24000/1001) FPS
    Color space                 : YUV
    Chroma subsampling          : 4:2:0
    Bit depth                   : 8 bits
    Scan type                   : Progressive
    Bits/(Pixel*Frame)          : 0.164
    Stream size                 : 5.76 GiB (82%)
    Title                       : Full HD1080p [CinemaniaHDD]
    Writing library             : x264 core 157 r2935 545de2f
    Encoding settings           : cabac=1 / ref=4 / deblock=1:0:0 / analyse=0x3:0x133 / me=tesa / subme=11 / psy=1 / psy_rd=1.00:0.00 / mixed_ref=1 / me_range=24 / chroma_me=1 / trellis=2 / 8x8dct=1 / cqm=0 / deadzone=21,11 / fast_pskip=0 / chroma_qp_offset=-2 / threads=24 / lookahead_threads=6 / sliced_threads=0 / nr=0 / decimate=1 / interlaced=0 / bluray_compat=0 / constrained_intra=0 / bframes=16 / b_pyramid=2 / b_adapt=2 / b_bias=0 / direct=3 / weightb=1 / open_gop=0 / weightp=2 / keyint=240 / keyint_min=24 / scenecut=40 / intra_refresh=0 / rc_lookahead=60 / rc=crf / mbtree=1 / crf=20.0 / qcomp=0.60 / qpmin=0 / qpmax=69 / qpstep=4 / vbv_maxrate=62500 / vbv_bufsize=78125 / crf_max=0.0 / nal_hrd=none / filler=0 / ip_ratio=1.40 / aq=1:1.00
    Default                     : Yes
    Forced                      : Yes
    Color range                 : Limited
    Color primaries             : BT.709
    Transfer characteristics    : BT.709
    Matrix coefficients         : BT.709

    Audio #1
    ID                          : 2
    Format                      : AC-3
    Format/Info                 : Audio Coding 3
    Commercial name             : Dolby Digital
    Codec ID                    : A_AC3
    Duration                    : 1 h 40 min
    Bit rate mode               : Constant
    Bit rate                    : 256 kb/s
    Channel(s)                  : 2 channels
    Channel layout              : L R
    Sampling rate               : 48.0 kHz
    Frame rate                  : 31.250 FPS (1536 SPF)
    Compression mode            : Lossy
    Stream size                 : 185 MiB (3%)
    Title                       : Español Latino [CinemaniaHDD]
    Language                    : Spanish
    Service kind                : Complete Main
    Default                     : Yes
    Forced                      : No

    Audio #2
    ID                          : 3
    Format                      : DTS
    Format/Info                 : Digital Theater Systems
    Codec ID                    : A_DTS
    Duration                    : 1 h 40 min
    Bit rate mode               : Constant
    Bit rate                    : 1 509 kb/s
    Channel(s)                  : 6 channels
    Channel layout              : C L R Ls Rs LFE
    Sampling rate               : 48.0 kHz
    Frame rate                  : 93.750 FPS (512 SPF)
    Bit depth                   : 24 bits
    Compression mode            : Lossy
    Stream size                 : 1.06 GiB (15%)
    Title                       : Ingles [CinemaniaHDD]
    Language                    : English
    Default                     : No
    Forced                      : No

    Text #1
    ID                          : 4
    Format                      : UTF-8
    Codec ID                    : S_TEXT/UTF8
    Codec ID/Info               : UTF-8 Plain Text
    Duration                    : 51 min 38 s
    Bit rate                    : 0 b/s
    Count of elements           : 2
    Stream size                 : 39.0 Bytes (0%)
    Title                       : Forzados-SRT [CinemaniaHDD]
    Language                    : Spanish
    Default                     : Yes
    Forced                      : No

    Text #2
    ID                          : 5
    Format                      : UTF-8
    Codec ID                    : S_TEXT/UTF8
    Codec ID/Info               : UTF-8 Plain Text
    Duration                    : 1 h 35 min
    Bit rate                    : 44 b/s
    Count of elements           : 1189
    Stream size                 : 30.8 KiB (0%)
    Title                       : Español-SRT [CinemaniaHDD]
    Language                    : Spanish
    Default                     : No
    Forced                      : No

    Text #3
    ID                          : 6
    Format                      : UTF-8
    Codec ID                    : S_TEXT/UTF8
    Codec ID/Info               : UTF-8 Plain Text
    Duration                    : 1 h 36 min
    Bit rate                    : 47 b/s
    Count of elements           : 1135
    Stream size                 : 33.1 KiB (0%)
    Title                       : Ingles-SRT [CinemaniaHDD]
    Language                    : English
    Default                     : No
    Forced                      : No

    Menu
    00:00:00.000                : :Chapter 01
    00:09:01.207                : :Chapter 02
    00:17:29.382                : :Chapter 03
    00:26:18.076                : :Chapter 04
    00:35:03.685                : :Chapter 05
    00:43:15.510                : :Chapter 06
    00:51:32.756                : :Chapter 07
    00:59:23.101                : :Chapter 08
    01:06:52.467                : :Chapter 09
    01:15:36.282                : :Chapter 10
    01:22:38.954                : :Chapter 11
    01:28:32.015                : :Chapter 12

  • Peso: 7.01 GiB

Sinopsis

Descargar Jóvenes Brujas (1996) PLACEBO Full HD 1080p Latino. Sara es una chica recién llegada a Los Ángeles que se siente sola entre sus nuevos compañeros de instituto. Pero conoce a tres amigas que sienten intereses afines a los suyos: las ciencias ocultas, y que además poseen poderes similares. Juntas formarán un círculo secreto que cambiará sus vidas para siempre.

Ficha técnica

Video trailer de la película

Enlaces de descarga

Rip de Bluray

Descargar Jóvenes Brujas (1996) PLACEBO Full HD 1080p Latino




Aportes de DPeliculasHDmega la pass es:dpeliculashdmega.org Aportes de CinemaniaHD la pass es:cinemaniahdd.com

Películas relacionadas

descargar Jóvenes Brujas (1996) PLACEBO Full HD 1080p Latino Full 1080p 1080p gratis, Jóvenes Brujas (1996) PLACEBO Full HD 1080p Latino Full 1080p mega 1 link, Jóvenes Brujas (1996) PLACEBO Full HD 1080p Latino Full 1080p pelicula completa, descargar Jóvenes Brujas (1996) PLACEBO Full HD 1080p Latino Full 1080p gratis en mega.

Jóvenes Brujas (1996) PLACEBO Full HD 1080p Latino pelicula full hd, Jóvenes Brujas (1996) PLACEBO Full HD 1080p Latino mega latino, Jóvenes Brujas (1996) PLACEBO Full HD 1080p Latino 4k latino, Jóvenes Brujas (1996) PLACEBO Full HD 1080p Latino pelicula completa, Jóvenes Brujas (1996) PLACEBO Full HD 1080p Latino descargar gratis, descargar Jóvenes Brujas (1996) PLACEBO Full HD 1080p Latino pelicula latino, Jóvenes Brujas (1996) PLACEBO Full HD 1080p Latino 1 link mega, Jóvenes Brujas (1996) PLACEBO Full HD 1080p Latino 1 link google drive, Jóvenes Brujas (1996) PLACEBO Full HD 1080p Latino hd 1080p latino.
Comentarios 0