×

¿Problemas para descargar con Mozilla, EDGE? Deshabilita la opción "Abrir vinculos en una pestaña nueva" tal como lo muestra ésta imagen.

Journey to the Center of the Earth (2008) WEB-DL 1080p Latino – CMHDD

76 vistas

Información de Journey to the Center of the Earth (2008) WEB-DL 1080p Latino – CMHDD

Datos de la película

  • Calidad: WEBDL
  • Audio: Español Latino AC3 2.0 WEB-DL - Ingles AC3 5.1 WEB-DL
  • Subtitulos: Español Latino SRT
  • Resolución: 19201080p
  • Formato:
  • Codec: H.264
  • Encoder: Dracarys
  • Mediainfo: Clic para Mostrar Datos Ver
  • Format                      : Matroska
    Format version              : Version 4
    File size                   : 6.15 GiB
    Duration                    : 1 h 32 min
    Overall bit rate            : 9 510 kb/s
    Movie name                  : Journey to the Center of the Earth (2008) WEB-DL 1080p Latino - CMHDD
    Encoded date                : UTC 2024-01-19 22:21:49
    Writing application         : mkvmerge v47.0.0 ('Black Flag') 64-bit
    Writing library             : libebml v1.3.10 + libmatroska v1.5.2

    Video
    ID                          : 1
    Format                      : AVC
    Format/Info                 : Advanced Video Codec
    Format profile              : High@L4
    Format settings             : CABAC / 4 Ref Frames
    Format settings, CABAC      : Yes
    Format settings, Reference  : 4 frames
    Codec ID                    : V_MPEG4/ISO/AVC
    Duration                    : 1 h 32 min
    Bit rate mode               : Constant
    Bit rate                    : 8 643 kb/s
    Nominal bit rate            : 10 000 kb/s
    Width                       : 1 920 pixels
    Height                      : 1 080 pixels
    Display aspect ratio        : 16:9
    Frame rate mode             : Constant
    Frame rate                  : 23.976 (24000/1001) FPS
    Color space                 : YUV
    Chroma subsampling          : 4:2:0
    Bit depth                   : 8 bits
    Scan type                   : Progressive
    Bits/(Pixel*Frame)          : 0.174
    Stream size                 : 5.59 GiB (91%)
    Default                     : Yes
    Forced                      : No
    Color range                 : Limited
    Color primaries             : BT.709
    Transfer characteristics    : BT.709
    Matrix coefficients         : BT.709

    Audio #1
    ID                          : 2
    Format                      : E-AC-3
    Format/Info                 : Enhanced AC-3
    Commercial name             : Dolby Digital Plus
    Codec ID                    : A_EAC3
    Duration                    : 1 h 32 min
    Bit rate mode               : Constant
    Bit rate                    : 224 kb/s
    Channel(s)                  : 2 channels
    Channel layout              : L R
    Sampling rate               : 48.0 kHz
    Frame rate                  : 31.250 FPS (1536 SPF)
    Compression mode            : Lossy
    Stream size                 : 148 MiB (2%)
    Language                    : Spanish
    Service kind                : Complete Main
    Default                     : Yes
    Forced                      : Yes

    Audio #2
    ID                          : 3
    Format                      : E-AC-3
    Format/Info                 : Enhanced AC-3
    Commercial name             : Dolby Digital Plus
    Codec ID                    : A_EAC3
    Duration                    : 1 h 32 min
    Bit rate mode               : Constant
    Bit rate                    : 640 kb/s
    Channel(s)                  : 6 channels
    Channel layout              : L R C LFE Ls Rs
    Sampling rate               : 48.0 kHz
    Frame rate                  : 31.250 FPS (1536 SPF)
    Compression mode            : Lossy
    Stream size                 : 424 MiB (7%)
    Language                    : English
    Service kind                : Complete Main
    Default                     : No
    Forced                      : No

    Text #1
    ID                          : 4
    Format                      : UTF-8
    Codec ID                    : S_TEXT/UTF8
    Codec ID/Info               : UTF-8 Plain Text
    Duration                    : 1 h 21 min
    Bit rate                    : 0 b/s
    Frame rate                  : 0.001 FPS
    Count of elements           : 5
    Stream size                 : 157 Bytes (0%)
    Title                       : Forzados
    Language                    : Spanish
    Default                     : Yes
    Forced                      : Yes

    Text #2
    ID                          : 5
    Format                      : UTF-8
    Codec ID                    : S_TEXT/UTF8
    Codec ID/Info               : UTF-8 Plain Text
    Duration                    : 1 h 31 min
    Bit rate                    : 44 b/s
    Frame rate                  : 0.190 FPS
    Count of elements           : 1049
    Stream size                 : 29.7 KiB (0%)
    Language                    : Spanish
    Default                     : No
    Forced                      : No

     

  • Peso: 6.15 GiB

Sinopsis

Durante una expedición científica en Islandia, el visionario científico Trevor Anderson (Brendan Fraser), su sobrino Sean (Josh Hutcherson) y su hermosa guía regional, Hannah (Anita Briem), quedan atrapados en una cueva. La única posibilidad de escapar de allí es adentrándose en las entrañas de la Tierra. Recorriendo mundos jamás vistos, el trío se encuentra cara a cara con criaturas increíbles. Pero la actividad volcánica del lugar es cada vez más intensa, por lo que deberán encontrar urgentemente una manera de poder volver a la superficie antes de que sea demasiado tarde.

Ficha técnica

Video trailer de la película

Enlaces de descarga

Rip de Bluray

Descargar Journey to the Center of the Earth (2008) WEB-DL 1080p Latino – CMHDD




Aportes de DPeliculasHDmega la pass es:dpeliculashdmega.org Aportes de CinemaniaHD la pass es:cinemaniahdd.com Aportes recientes:cinemaniahdd.net

Películas relacionadas

  • Good Burger 2 (2023) HD 1080p Latino

    Good Burger 2 (2023) HD 1080p Latino

    2023
    Good Burger 2 (2023) HD 1080p Latino

    1h 31m 2023

    Descargar Good Burger 2 (2023) HD 1080p Latino. Después de que su último invento falla, Ed le da la...

    Director: Ross Novie

    Género: Comedia

    Actores: Zoe Saldana

  • Good Burger 2 (2023) PLACEBO Full HD 1080p Latino

    Good Burger 2 (2023) PLACEBO Full HD 1080p Latino

    2023
    Good Burger 2 (2023) PLACEBO Full HD 1080p Latino

    1h 31m 2023

    Descargar Good Burger 2 (2023) PLACEBO Full HD 1080p Latino. Después de que su último invento falla,...

    Director: Ross Novie

    Género: Comedia

    Actores: Zoe Saldana

  • Good Burger 2 (2023) REMUX 1080p Latino

    Good Burger 2 (2023) REMUX 1080p Latino

    2023
    Good Burger 2 (2023) REMUX 1080p Latino

    1h 31m 2023

    Descargar Good Burger 2 (2023) REMUX 1080p Latino. Después de que su último invento falla, Ed le da...

    Director: Ross Novie

    Género: Comedia

    Actores: Zoe Saldana

descargar Journey to the Center of the Earth (2008) WEB-DL 1080p Latino – CMHDD WEBDL 1080p gratis, Journey to the Center of the Earth (2008) WEB-DL 1080p Latino – CMHDD WEBDL mega 1 link, Journey to the Center of the Earth (2008) WEB-DL 1080p Latino – CMHDD WEBDL pelicula completa, descargar Journey to the Center of the Earth (2008) WEB-DL 1080p Latino – CMHDD WEBDL gratis en mega.

Journey to the Center of the Earth (2008) WEB-DL 1080p Latino – CMHDD pelicula full hd, Journey to the Center of the Earth (2008) WEB-DL 1080p Latino – CMHDD mega latino, Journey to the Center of the Earth (2008) WEB-DL 1080p Latino – CMHDD 4k latino, Journey to the Center of the Earth (2008) WEB-DL 1080p Latino – CMHDD pelicula completa, Journey to the Center of the Earth (2008) WEB-DL 1080p Latino – CMHDD descargar gratis, descargar Journey to the Center of the Earth (2008) WEB-DL 1080p Latino – CMHDD pelicula latino, Journey to the Center of the Earth (2008) WEB-DL 1080p Latino – CMHDD 1 link mega, Journey to the Center of the Earth (2008) WEB-DL 1080p Latino – CMHDD 1 link google drive, Journey to the Center of the Earth (2008) WEB-DL 1080p Latino – CMHDD hd 1080p latino.
Comentarios 0