×

¿Problemas para descargar con Mozilla, EDGE? Deshabilita la opción "Abrir vinculos en una pestaña nueva" tal como lo muestra ésta imagen.

Journey 2 The Mysterious Island (2012) WEB-DL 1080p Latino – CMHDD

140 vistas

Información de Journey 2 The Mysterious Island (2012) WEB-DL 1080p Latino – CMHDD

Datos de la película

  • Calidad: WEBDL
  • Audio: Español Latino AC3 2.0 WEB-DL - Ingles AC3 5.1 WEB-DL
  • Subtitulos: Español Latino SRT- FORZADOS SRT
  • Resolución: 19201080p
  • Formato: MKV
  • Codec: H.264
  • Encoder: Dracarys
  • Mediainfo: Clic para Mostrar Datos Ver
  • Format                      : Matroska
    Format version              : Version 4
    File size                   : 6.62 GiB
    Duration                    : 1 h 34 min
    Overall bit rate            : 10.1 Mb/s
    Movie name                  : Journey 2: The Mysterious Island (2012) WEB-DL 1080p Latino - CMHDD
    Encoded date                : UTC 2024-01-19 22:22:56
    Writing application         : mkvmerge v47.0.0 ('Black Flag') 64-bit
    Writing library             : libebml v1.3.10 + libmatroska v1.5.2

    Video
    ID                          : 1
    Format                      : AVC
    Format/Info                 : Advanced Video Codec
    Format profile              : High@L4
    Format settings             : CABAC / 4 Ref Frames
    Format settings, CABAC      : Yes
    Format settings, Reference  : 4 frames
    Codec ID                    : V_MPEG4/ISO/AVC
    Duration                    : 1 h 34 min
    Bit rate mode               : Constant
    Bit rate                    : 9 201 kb/s
    Nominal bit rate            : 10 000 kb/s
    Width                       : 1 920 pixels
    Height                      : 1 080 pixels
    Display aspect ratio        : 16:9
    Frame rate mode             : Constant
    Frame rate                  : 23.976 (24000/1001) FPS
    Color space                 : YUV
    Chroma subsampling          : 4:2:0
    Bit depth                   : 8 bits
    Scan type                   : Progressive
    Bits/(Pixel*Frame)          : 0.185
    Stream size                 : 6.05 GiB (91%)
    Default                     : Yes
    Forced                      : No
    Color range                 : Limited
    Color primaries             : BT.709
    Transfer characteristics    : BT.709
    Matrix coefficients         : BT.709

    Audio #1
    ID                          : 2
    Format                      : E-AC-3
    Format/Info                 : Enhanced AC-3
    Commercial name             : Dolby Digital Plus
    Codec ID                    : A_EAC3
    Duration                    : 1 h 34 min
    Bit rate mode               : Constant
    Bit rate                    : 224 kb/s
    Channel(s)                  : 2 channels
    Channel layout              : L R
    Sampling rate               : 48.0 kHz
    Frame rate                  : 31.250 FPS (1536 SPF)
    Compression mode            : Lossy
    Stream size                 : 151 MiB (2%)
    Language                    : Spanish
    Service kind                : Complete Main
    Default                     : Yes
    Forced                      : Yes

    Audio #2
    ID                          : 3
    Format                      : E-AC-3
    Format/Info                 : Enhanced AC-3
    Commercial name             : Dolby Digital Plus
    Codec ID                    : A_EAC3
    Duration                    : 1 h 34 min
    Bit rate mode               : Constant
    Bit rate                    : 640 kb/s
    Channel(s)                  : 6 channels
    Channel layout              : L R C LFE Ls Rs
    Sampling rate               : 48.0 kHz
    Frame rate                  : 31.250 FPS (1536 SPF)
    Compression mode            : Lossy
    Stream size                 : 431 MiB (6%)
    Language                    : English
    Service kind                : Complete Main
    Default                     : No
    Forced                      : No

    Text #1
    ID                          : 4
    Format                      : UTF-8
    Codec ID                    : S_TEXT/UTF8
    Codec ID/Info               : UTF-8 Plain Text
    Duration                    : 1 h 22 min
    Bit rate                    : 0 b/s
    Frame rate                  : 0.003 FPS
    Count of elements           : 14
    Stream size                 : 364 Bytes (0%)
    Title                       : Forzados
    Language                    : Spanish
    Default                     : Yes
    Forced                      : Yes

    Text #2
    ID                          : 5
    Format                      : UTF-8
    Codec ID                    : S_TEXT/UTF8
    Codec ID/Info               : UTF-8 Plain Text
    Duration                    : 1 h 33 min
    Bit rate                    : 52 b/s
    Frame rate                  : 0.198 FPS
    Count of elements           : 1110
    Stream size                 : 36.1 KiB (0%)
    Language                    : Spanish
    Default                     : No
    Forced                      : No

     

  • Peso: 6.62 GiB

Sinopsis

Sean (Hutcherson) recibe una llamada de socorro desde una misteriosa isla, que no aparece en los mapas. Se trata de un lugar con extrañas formas de vida. Sean emprenderá la búsqueda acompañado de su padrastro (Johnson), de un piloto de helicóptero (Guzman) y su hermosa y temperamental hija (Hudgens). Secuela de «Viaje al centro de la tierra 3D».

Ficha técnica

Video trailer de la película

Enlaces de descarga

Rip de Bluray

Descargar Journey 2 The Mysterious Island (2012) WEB-DL 1080p Latino – CMHDD




Aportes de DPeliculasHDmega la pass es:dpeliculashdmega.org Aportes de CinemaniaHD la pass es:cinemaniahdd.com Aportes recientes:cinemaniahdd.net
Guardado en : Acción , Aventura , Ciencia ficción

Películas relacionadas

descargar Journey 2 The Mysterious Island (2012) WEB-DL 1080p Latino – CMHDD WEBDL 1080p gratis, Journey 2 The Mysterious Island (2012) WEB-DL 1080p Latino – CMHDD WEBDL mega 1 link, Journey 2 The Mysterious Island (2012) WEB-DL 1080p Latino – CMHDD WEBDL pelicula completa, descargar Journey 2 The Mysterious Island (2012) WEB-DL 1080p Latino – CMHDD WEBDL gratis en mega.

Journey 2 The Mysterious Island (2012) WEB-DL 1080p Latino – CMHDD pelicula full hd, Journey 2 The Mysterious Island (2012) WEB-DL 1080p Latino – CMHDD mega latino, Journey 2 The Mysterious Island (2012) WEB-DL 1080p Latino – CMHDD 4k latino, Journey 2 The Mysterious Island (2012) WEB-DL 1080p Latino – CMHDD pelicula completa, Journey 2 The Mysterious Island (2012) WEB-DL 1080p Latino – CMHDD descargar gratis, descargar Journey 2 The Mysterious Island (2012) WEB-DL 1080p Latino – CMHDD pelicula latino, Journey 2 The Mysterious Island (2012) WEB-DL 1080p Latino – CMHDD 1 link mega, Journey 2 The Mysterious Island (2012) WEB-DL 1080p Latino – CMHDD 1 link google drive, Journey 2 The Mysterious Island (2012) WEB-DL 1080p Latino – CMHDD hd 1080p latino.
Comentarios 0