×

¿Problemas para descargar con Mozilla, EDGE? Deshabilita la opción "Abrir vinculos en una pestaña nueva" tal como lo muestra ésta imagen.

Jolt (2021) AMZN 4K-HDR WEB-DL 2160p Latino

184 vistas

Información de Jolt (2021) AMZN 4K-HDR WEB-DL 2160p Latino

Datos de la película

  • Calidad: 1080p
  • Audio: Español Latino E-AC3 5.1 AMAZON - Ingles E-AC3 5.1 AMAZON
  • Subtitulos: Español Latino SRT- FORZADOS SRT
  • Resolución: 3840x1600
  • Formato: MKV
  • Codec: HEVC
  • Encoder:
  • Mediainfo: Clic para Mostrar Datos Ver
  • Jolt (2021) AMZN 4K-HDR WEB-DL 2160p Latino [CNMNHDD].mkv
    Format                      : Matroska
    Format version              : Version 4
    File size                   : 10.4 GiB
    Duration                    : 1 h 31 min
    Overall bit rate            : 16.3 Mb/s
    Movie name                  : Jolt (2021) 4K - CinemaniaHDD.Net
    Encoded date                : UTC 2021-07-23 17:48:39
    Writing application         : mkvmerge v56.1.0 ('My Friend') 64-bit
    Writing library             : libebml v1.4.2 + libmatroska v1.6.4

    Video
    ID                          : 1
    Format                      : HEVC
    Format/Info                 : High Efficiency Video Coding
    Format profile              : Main 10@L5@Main
    HDR format                  : SMPTE ST 2094 App 4, Version 1, HDR10+ Profile B compatible
    Codec ID                    : V_MPEGH/ISO/HEVC
    Duration                    : 1 h 31 min
    Bit rate                    : 14.4 Mb/s
    Width                       : 3 840 pixels
    Height                      : 1 600 pixels
    Display aspect ratio        : 2.40:1
    Frame rate mode             : Constant
    Frame rate                  : 23.976 (24000/1001) FPS
    Color space                 : YUV
    Chroma subsampling          : 4:2:0
    Bit depth                   : 10 bits
    Bits/(Pixel*Frame)          : 0.098
    Stream size                 : 9.14 GiB (88%)
    Title                       : CinemaniaHDD
    Default                     : Yes
    Forced                      : No
    Color range                 : Limited
    Color primaries             : BT.2020
    Transfer characteristics    : PQ
    Matrix coefficients         : BT.2020 non-constant
    Mastering display color pri : Display P3
    Mastering display luminance : min: 0.0001 cd/m2, max: 1000 cd/m2
    Maximum Content Light Level : 1140 cd/m2
    Maximum Frame-Average Light : 831 cd/m2

    Audio #1
    ID                          : 2
    Format                      : AC-3
    Format/Info                 : Audio Coding 3
    Commercial name             : Dolby Digital
    Codec ID                    : A_AC3
    Duration                    : 1 h 31 min
    Bit rate mode               : Constant
    Bit rate                    : 640 kb/s
    Channel(s)                  : 6 channels
    Channel layout              : L R C LFE Ls Rs
    Sampling rate               : 48.0 kHz
    Frame rate                  : 31.250 FPS (1536 SPF)
    Compression mode            : Lossy
    Stream size                 : 417 MiB (4%)
    Title                       : Español latino - AC3 [CinemaniaHDD]
    Language                    : Spanish
    Service kind                : Complete Main
    Default                     : Yes
    Forced                      : No

    Audio #2
    ID                          : 3
    Format                      : E-AC-3
    Format/Info                 : Enhanced AC-3
    Commercial name             : Dolby Digital Plus
    Codec ID                    : A_EAC3
    Duration                    : 1 h 31 min
    Bit rate mode               : Constant
    Bit rate                    : 640 kb/s
    Channel(s)                  : 6 channels
    Channel layout              : L R C LFE Ls Rs
    Sampling rate               : 48.0 kHz
    Frame rate                  : 31.250 FPS (1536 SPF)
    Compression mode            : Lossy
    Stream size                 : 417 MiB (4%)
    Title                       : Español latino - E-AC3 [CinemaniaHDD]
    Language                    : Spanish
    Service kind                : Complete Main
    Default                     : No
    Forced                      : No

    Audio #3
    ID                          : 4
    Format                      : E-AC-3
    Format/Info                 : Enhanced AC-3
    Commercial name             : Dolby Digital Plus
    Codec ID                    : A_EAC3
    Duration                    : 1 h 31 min
    Bit rate mode               : Constant
    Bit rate                    : 640 kb/s
    Channel(s)                  : 6 channels
    Channel layout              : L R C LFE Ls Rs
    Sampling rate               : 48.0 kHz
    Frame rate                  : 31.250 FPS (1536 SPF)
    Compression mode            : Lossy
    Stream size                 : 417 MiB (4%)
    Title                       : Inglés - E-AC3 [CinemaniaHDD]
    Language                    : English
    Service kind                : Complete Main
    Default                     : No
    Forced                      : No

    Text #1
    ID                          : 5
    Format                      : UTF-8
    Codec ID                    : S_TEXT/UTF8
    Codec ID/Info               : UTF-8 Plain Text
    Duration                    : 1 h 23 min
    Bit rate                    : 0 b/s
    Count of elements           : 13
    Stream size                 : 391 Bytes (0%)
    Title                       : Forzados [CinemaniaHDD]
    Language                    : Spanish
    Default                     : Yes
    Forced                      : Yes

    Text #2
    ID                          : 6
    Format                      : UTF-8
    Codec ID                    : S_TEXT/UTF8
    Codec ID/Info               : UTF-8 Plain Text
    Duration                    : 1 h 30 min
    Bit rate                    : 47 b/s
    Count of elements           : 1030
    Stream size                 : 31.7 KiB (0%)
    Title                       : Español latino [CinemaniaHDD]
    Language                    : Spanish
    Default                     : No
    Forced                      : No

    Text #3
    ID                          : 7
    Format                      : UTF-8
    Codec ID                    : S_TEXT/UTF8
    Codec ID/Info               : UTF-8 Plain Text
    Duration                    : 1 h 24 min
    Bit rate                    : 70 b/s
    Count of elements           : 1588
    Stream size                 : 44.0 KiB (0%)
    Title                       : Inglés [CC] [CinemaniaHDD]
    Language                    : English
    Default                     : No
    Forced                      : No

     

  • Peso: 10.4 GiB

Sinopsis

Lindy es una mujer con un doloroso secreto: debido a un raro trastorno neurológico crónico, experimenta esporádicos impulsos de ira extremadamente violentos que solo pueden detenerse cuando se aplica una descarga a sí misma con un dispositivo especial de electrodos. Aunque es incapaz de encontrar el amor y de encajar en un mundo que teme su extraña condición, por fin logra confiar lo suficiente en un hombre como para enamorarse, solo para encontrarlo muerto al día siguiente. Desconsolada y enfurecida, se embarca en una misión de venganza para encontrar a su asesino, mientras es perseguida por la policía como principal sospechosa del crimen.

Ficha técnica

  • Titulo original: Jolt
  • Fecha de lanzamiento: 23-07-2021 (United States of America)
  • Director: Tanya Wexler
  • Género: Acción

Video trailer de la película

Enlaces de descarga

Rip de Bluray

Descargar Jolt (2021) AMZN 4K-HDR WEB-DL 2160p Latino




Aportes de DPeliculasHDmega la pass es:dpeliculashdmega.org Aportes de CinemaniaHD la pass es:cinemaniahdd.com
Guardado en : Acción

Películas relacionadas

descargar Jolt (2021) AMZN 4K-HDR WEB-DL 2160p Latino 1080p 1080p gratis, Jolt (2021) AMZN 4K-HDR WEB-DL 2160p Latino 1080p mega 1 link, Jolt (2021) AMZN 4K-HDR WEB-DL 2160p Latino 1080p pelicula completa, descargar Jolt (2021) AMZN 4K-HDR WEB-DL 2160p Latino 1080p gratis en mega.

Jolt (2021) AMZN 4K-HDR WEB-DL 2160p Latino pelicula full hd, Jolt (2021) AMZN 4K-HDR WEB-DL 2160p Latino mega latino, Jolt (2021) AMZN 4K-HDR WEB-DL 2160p Latino 4k latino, Jolt (2021) AMZN 4K-HDR WEB-DL 2160p Latino pelicula completa, Jolt (2021) AMZN 4K-HDR WEB-DL 2160p Latino descargar gratis, descargar Jolt (2021) AMZN 4K-HDR WEB-DL 2160p Latino pelicula latino, Jolt (2021) AMZN 4K-HDR WEB-DL 2160p Latino 1 link mega, Jolt (2021) AMZN 4K-HDR WEB-DL 2160p Latino 1 link google drive, Jolt (2021) AMZN 4K-HDR WEB-DL 2160p Latino hd 1080p latino.
Comentarios 0