Joker (2019) PLACEBO Full HD 1080p Latino

11.429 vistas
1 estrella2 estrellas3 estrellas4 estrellas5 estrellas (20 votos, promedio: 4,45 de 5)
Cargando...

Información de Joker (2019) PLACEBO Full HD 1080p Latino

Datos de la película

  • Calidad: Full 1080p
  • Audio: Español Latino AC3 5.1 BLURAY - Ingles DTS 5.1 BLURAY
  • Subtitulos: Español Latino PGS - Ingles PGS
  • Resolución: 1920x1080
  • Formato: MKV
  • Codec: H.264
  • Encoder: cinemaniahdd
  • Mediainfo: Clic para Mostrar Datos Ver
  • Joker (2019) PLACEBO 1080p Latino.mkv
    Format                      : Matroska
    Format version              : Version 4
    File size                   : 6.75 GiB
    Duration                    : 2 h 1 min
    Overall bit rate            : 7 934 kb/s
    Movie name                  : Joker (2019) - CinemaniaHDD.Net
    Encoded date                : UTC 2019-12-22 05:45:23
    Writing application         : mkvmerge v38.0.0 ('The Silent Type') 64-bit
    Writing library             : libebml v1.3.9 + libmatroska v1.5.2
    Attachments                 : CINEMANIAHD.png

    Video
    ID                          : 1
    Format                      : AVC
    Format/Info                 : Advanced Video Codec
    Format profile              : High@L4.1
    Format settings             : CABAC / 4 Ref Frames
    Format settings, CABAC      : Yes
    Format settings, ReFrames   : 4 frames
    Codec ID                    : V_MPEG4/ISO/AVC
    Duration                    : 2 h 1 min
    Bit rate                    : 5 955 kb/s
    Width                       : 1 920 pixels
    Height                      : 1 080 pixels
    Display aspect ratio        : 16:9
    Frame rate mode             : Constant
    Frame rate                  : 23.976 (24000/1001) FPS
    Color space                 : YUV
    Chroma subsampling          : 4:2:0
    Bit depth                   : 8 bits
    Scan type                   : Progressive
    Bits/(Pixel*Frame)          : 0.120
    Stream size                 : 5.07 GiB (75%)
    Title                       : CinemaniaHDD
    Writing library             : x264 core 157 r2935 545de2f
    Encoding settings           : cabac=1 / ref=4 / deblock=1:0:0 / analyse=0x3:0x133 / me=tesa / subme=11 / psy=1 / psy_rd=1.00:0.00 / mixed_ref=1 / me_range=24 / chroma_me=1 / trellis=2 / 8x8dct=1 / cqm=0 / deadzone=21,11 / fast_pskip=0 / chroma_qp_offset=-2 / threads=34 / lookahead_threads=8 / sliced_threads=0 / nr=0 / decimate=1 / interlaced=0 / bluray_compat=0 / constrained_intra=0 / bframes=16 / b_pyramid=2 / b_adapt=2 / b_bias=0 / direct=3 / weightb=1 / open_gop=0 / weightp=2 / keyint=240 / keyint_min=24 / scenecut=40 / intra_refresh=0 / rc_lookahead=60 / rc=crf / mbtree=1 / crf=20.0 / qcomp=0.60 / qpmin=0 / qpmax=69 / qpstep=4 / vbv_maxrate=62500 / vbv_bufsize=78125 / crf_max=0.0 / nal_hrd=none / filler=0 / ip_ratio=1.40 / aq=1:1.00
    Default                     : Yes
    Forced                      : No
    Color range                 : Limited
    Color primaries             : BT.709
    Transfer characteristics    : BT.709
    Matrix coefficients         : BT.709

    Audio #1
    ID                          : 2
    Format                      : AC-3
    Format/Info                 : Audio Coding 3
    Commercial name             : Dolby Digital
    Codec ID                    : A_AC3
    Duration                    : 2 h 1 min
    Bit rate mode               : Constant
    Bit rate                    : 448 kb/s
    Channel(s)                  : 6 channels
    Channel layout              : L R C LFE Ls Rs
    Sampling rate               : 48.0 kHz
    Frame rate                  : 31.250 FPS (1536 SPF)
    Bit depth                   : 16 bits
    Compression mode            : Lossy
    Stream size                 : 390 MiB (6%)
    Title                       : Español latino [CinemaniaHDD]
    Language                    : Spanish
    Service kind                : Complete Main
    Default                     : Yes
    Forced                      : No

    Audio #2
    ID                          : 3
    Format                      : DTS
    Format/Info                 : Digital Theater Systems
    Codec ID                    : A_DTS
    Duration                    : 2 h 1 min
    Bit rate mode               : Constant
    Bit rate                    : 1 509 kb/s
    Channel(s)                  : 6 channels
    Channel layout              : C L R Ls Rs LFE
    Sampling rate               : 48.0 kHz
    Frame rate                  : 93.750 FPS (512 SPF)
    Bit depth                   : 24 bits
    Compression mode            : Lossy
    Stream size                 : 1.28 GiB (19%)
    Title                       : Inglés [CinemaniaHDD]
    Language                    : English
    Default                     : No
    Forced                      : No

    Text #1
    ID                          : 4
    Format                      : UTF-8
    Codec ID                    : S_TEXT/UTF8
    Codec ID/Info               : UTF-8 Plain Text
    Duration                    : 1 h 47 min
    Bit rate                    : 1 b/s
    Count of elements           : 37
    Stream size                 : 1.02 KiB (0%)
    Title                       : Forzados [CinemaniaHDD]
    Language                    : Spanish
    Default                     : Yes
    Forced                      : Yes

    Text #2
    ID                          : 5
    Format                      : PGS
    Muxing mode                 : zlib
    Codec ID                    : S_HDMV/PGS
    Codec ID/Info               : Picture based subtitle format used on BDs/HD-DVDs
    Duration                    : 1 h 57 min
    Bit rate                    : 27.1 kb/s
    Count of elements           : 2384
    Stream size                 : 22.7 MiB (0%)
    Title                       : Español latino [CinemaniaHDD]
    Language                    : Spanish
    Default                     : No
    Forced                      : No

    Text #3
    ID                          : 6
    Format                      : PGS
    Muxing mode                 : zlib
    Codec ID                    : S_HDMV/PGS
    Codec ID/Info               : Picture based subtitle format used on BDs/HD-DVDs
    Duration                    : 1 h 58 min
    Bit rate                    : 35.8 kb/s
    Count of elements           : 3480
    Stream size                 : 30.2 MiB (0%)
    Title                       : Inglés [CinemaniaHDD]
    Language                    : English
    Default                     : No
    Forced                      : No

    Menu
    00:00:00.000                : en:Studio Logo
    00:00:14.000                : en:Makeup
    00:01:31.000                : en:Broken Sign
    00:03:42.000                : en:Therapy
    00:07:41.000                : en:Bus
    00:09:14.000                : en:Meeting Murray
    00:15:20.000                : en:Protection
    00:19:12.000                : en:Enter Sophie
    00:21:00.000                : en:Bath
    00:23:33.000                : en:Following
    00:24:52.000                : en:Comedy Scout
    00:26:00.000                : en:Invite
    00:27:58.000                : en:Hospital Gig
    00:29:22.000                : en:Subway Scuffle
    00:34:09.000                : en:Fleeing
    00:36:13.000                : en:First Kiss
    00:36:45.000                : en:Punching Out
    00:38:13.000                : en:Wayne Interview
    00:39:55.000                : en:Negative Thoughts
    00:42:13.000                : en:Open Mic
    00:45:14.000                : en:Date
    00:46:20.000                : en:Letter to Wayne
    00:50:22.000                : en:Clipping
    00:51:11.000                : en:Wayne Manor
    00:55:15.000                : en:Emergency
    00:56:18.000                : en:Detectives
    00:58:31.000                : en:Arthur on T.V.
    01:01:00.000                : en:Protest Coverage
    01:02:17.000                : en:Meeting Wayne
    01:07:10.000                : en:Invitation
    01:09:35.000                : en:Arkham
    01:13:25.000                : en:Penny's File
    01:15:40.000                : en:Sophie's Place
    01:19:48.000                : en:Life's a Comedy
    01:22:11.000                : en:Practice
    01:24:27.000                : en:Randall and Gary visit Arthur
    01:30:14.000                : en:Stairwell Waltz
    01:34:50.000                : en:Dressing Room
    01:37:01.000                : en:Arthur's Big Moment
    01:46:34.000                : en:Riot
    01:49:04.000                : en:Crime Alley
    01:50:01.000                : en:Joker's Fans
    01:52:32.000                : en:Thinking of a Joke
    01:55:38.000                : en:End Credits

     

  • Peso: 6.75 GiB

Sinopsis

Arthur Fleck es un hombre ignorado por la sociedad, cuya motivación en la vida es hacer reír. Pero una serie de trágicos acontecimientos le llevarán a ver el mundo de otra forma. Película basada en Joker, el popular personaje de DC Comics y archivillano de Batman, pero que en este film toma un cariz más realista y oscuro.

Ficha técnica

Video trailer de la película

Enlaces de descarga

Rip de Bluray

Descargar Joker (2019) PLACEBO Full HD 1080p Latino




Aportes de DPeliculasHDmega la pass es:dpeliculashdmega.org Aportes de CinemaniaHD la pass es:cinemaniahdd.com

Películas relacionadas

Comentarios 27
  • Loro - 05 marzo, 2020

    Instale la ultima version de winrar, y ahora SI pude descomprimir sin problemas , Muchas gracias.

  • Carlos Mora Boneth - 27 febrero, 2020

    Buenos dias.
    Llevo casi dos semanas intentando descargar la parte 4 y por todos los servidores y demas opciones de descarga sigue saliendo el siguiente ERROR

    ! C:\Users\Carlos Mora Boneth\Downloads\Jocker\j0k3rplacebo.part4.rar: Error en la suma de control del fichero codificado Joker (2019) PLACEBO 1080p Latino.mkv. Fichero dañado o contraseña incorrecta.

  • Loro - 23 febrero, 2020

    La primera vez que tengo problemas para descargar de este sitio… probe de varias formas y me sale el mismo error que a todos.

  • Fk - 05 enero, 2020

    Descargue sin problemas, muchas gracias

  • William - 02 enero, 2020

    imposible, al descomprimir sale parte 4 corrupta

  • GABRIEL - 28 diciembre, 2019

    hola intento descomprimir los archivos y me sale error en la suma… parte 4. he descargado la parte 4 varias veces en diferentes navegadores y nada, también le he descargado en diferentes programas de descargas y tampoco,,,. he actualizado mi winrar, y tampoco… podrían decirme cómo puedo hacer para este problema??.

    • CinemaniaHDD - 28 diciembre, 2019

      Hola
      yo mismo descarge de 2 pc diferentes los archivos y no me dieron problemas. y ese «error en la suma» nose a que se deba. MEJOR ENVIA CAPTURAS DE CUANDO TE SALGA EL PROBLEMA, para ayudarte mejor
      o puedes pasarte al VIP y bajar en 1Link sin comprimir

      • Denis - 30 diciembre, 2019

        Gracias por la película, pero desde hace una semana que paso bajando los archivos una y otra vez de diferentes servidores y me sigue saliendo error y no me permite descomprimir, he intentado hacerlo en diferentes máquinas con la última versión del winrar y nada, acabo de leer los comentarios y veo que tienen el mismo problema, si alguien tiene la solución por favor comentenla, nuevamente gracias Cinemaniahdd.

  • thaya - 26 diciembre, 2019

    Por favor, la contraseña de la película me la podrían decir? Ninguna de las que están colocadas aquí me funcionan.

    • CinemaniaHDD - 26 diciembre, 2019

      cinemaniahdd.com

  • Mario - 25 diciembre, 2019

    me sale error en la parte 4 y ya intente descargarla de nuevo alguien sabe que puede ser?

    • CinemaniaHDD - 26 diciembre, 2019

      Los archivos estan bien. intenta actualizar tu winrar a una version mas reciente

      • Mario - 26 diciembre, 2019

        Ya actualize el winrar y sigue saliendo error «Error en la suma de control de fichero cifrado»

        • CinemaniaHDD - 26 diciembre, 2019

          Una pregunta bajaste el rar 4 de MEGA?
          xq cuando bajas de gestores suele dañarse el archivo de MEGA es mejor bajar de un navegador web.
          mira a mi no me da errores:
          https://prnt.sc/qg8093

          descomprecion:
          https://prnt.sc/qg81tp

          • Mario - 27 diciembre, 2019

            Lo descargue de drive ya como dos veces pero sigue saliendo lo mismo.
            Crees que tenga que ver el navegador de donde lo descargue?

            • CinemaniaHDD - 02 enero, 2020

              Usa algun gestor de descarga como mypony o jd2

    • Richard - 26 diciembre, 2019

      tengo el mismo error al descomprimir con la parte 4 ….. 🙁

      • CinemaniaHDD - 26 diciembre, 2019

        Una pregunta bajaste el rar 4 de MEGA?
        xq cuando bajas de gestores suele dañarse el archivo de MEGA es mejor bajar de un navegador web.
        mira a mi no me da errores:
        https://prnt.sc/qg8093

        descomprecion:
        https://prnt.sc/qg81tp

  • Roger Gzz C - 25 diciembre, 2019

    Excelente, muchísimas gracias!

    Una duda solo esta en español latino o sera problema de mi reproductor que no me deja escoger el idioma ingles?

    • CinemaniaHDD - 25 diciembre, 2019

      Hola. si esta con audio en Ingles DTS 5.1

  • ricardo - 25 diciembre, 2019

    La estaba esperando. Gracias por el aporte. Excelente como siempre. Saludos

  • Luis Gómez - 23 diciembre, 2019

    Muchas Gracias… extraordinaria pagina como me encanta la pestaña de Full HD PLACEBO. salu2 amigos de CMHDD

  • Octavio Cesar posadas Martinez - 22 diciembre, 2019

    Gracias por el guasón, saludos