×

¿Problemas para descargar con Mozilla, EDGE? Deshabilita la opción "Abrir vinculos en una pestaña nueva" tal como lo muestra ésta imagen.

Guasón (2019) 1080p Latino

6.648 vistas

Información de Guasón (2019) 1080p Latino

Datos de la película

  • Calidad: 1080p
  • Audio: Español Latino AC3 5.1 iTUNES - Ingles AC3 5.1 BLURAY
  • Subtitulos: Español Latino SRT- FORZADOS SRT
  • Resolución: 1920x1040
  • Formato: MKV
  • Codec: H.264
  • Encoder: CinemaniaHD
  • Mediainfo: Clic para Mostrar Datos Ver
  • Joker (2019) 1080p Latino-CMHDD.mkv
    Format                      : Matroska
    Format version              : Version 4
    File size                   : 3.59 GiB
    Duration                    : 2 h 1 min
    Overall bit rate            : 4 213 kb/s
    Movie name                  : CinemaniaHDD.Net
    Encoded date                : UTC 2019-12-18 23:44:58
    Writing application         : mkvmerge v38.0.0 ('The Silent Type') 64-bit
    Writing library             : libebml v1.3.9 + libmatroska v1.5.2
    Attachments                 : CINEMANIAHD.png

    Video
    ID                          : 1
    Format                      : AVC
    Format/Info                 : Advanced Video Codec
    Format profile              : High@L4.1
    Format settings             : CABAC / 4 Ref Frames
    Format settings, CABAC      : Yes
    Format settings, ReFrames   : 4 frames
    Codec ID                    : V_MPEG4/ISO/AVC
    Duration                    : 2 h 1 min
    Bit rate                    : 3 500 kb/s
    Width                       : 1 920 pixels
    Height                      : 1 040 pixels
    Display aspect ratio        : 1.85:1
    Frame rate mode             : Constant
    Frame rate                  : 23.976 (24000/1001) FPS
    Color space                 : YUV
    Chroma subsampling          : 4:2:0
    Bit depth                   : 8 bits
    Scan type                   : Progressive
    Bits/(Pixel*Frame)          : 0.073
    Stream size                 : 2.88 GiB (80%)
    Title                       : HD1080p [Bluray]
    Writing library             : x264 core 157 r2935 545de2f
    Encoding settings           : cabac=1 / ref=4 / deblock=1:-1:-1 / analyse=0x3:0x133 / me=umh / subme=9 / psy=1 / psy_rd=1.00:0.15 / mixed_ref=1 / me_range=16 / chroma_me=1 / trellis=2 / 8x8dct=1 / cqm=0 / deadzone=21,11 / fast_pskip=1 / chroma_qp_offset=-3 / threads=32 / lookahead_threads=2 / sliced_threads=0 / nr=0 / decimate=1 / interlaced=0 / bluray_compat=0 / constrained_intra=0 / bframes=3 / b_pyramid=2 / b_adapt=2 / b_bias=0 / direct=3 / weightb=1 / open_gop=0 / weightp=2 / keyint=240 / keyint_min=24 / scenecut=40 / intra_refresh=0 / rc_lookahead=60 / rc=abr / mbtree=1 / bitrate=3500 / ratetol=1.0 / qcomp=0.60 / qpmin=0 / qpmax=69 / qpstep=4 / vbv_maxrate=62500 / vbv_bufsize=78125 / nal_hrd=none / filler=0 / ip_ratio=1.40 / aq=1:1.00
    Default                     : Yes
    Forced                      : Yes
    Color range                 : Limited
    Color primaries             : BT.709
    Transfer characteristics    : BT.709
    Matrix coefficients         : BT.709

    Audio #1
    ID                          : 2
    Format                      : AC-3
    Format/Info                 : Audio Coding 3
    Commercial name             : Dolby Digital
    Codec ID                    : A_AC3
    Duration                    : 2 h 1 min
    Bit rate mode               : Constant
    Bit rate                    : 384 kb/s
    Channel(s)                  : 6 channels
    Channel layout              : L R C LFE Ls Rs
    Sampling rate               : 48.0 kHz
    Frame rate                  : 31.250 FPS (1536 SPF)
    Bit depth                   : 16 bits
    Compression mode            : Lossy
    Delay relative to video     : 685 ms
    Stream size                 : 335 MiB (9%)
    Title                       : AC3_5.1_Web_Esp
    Language                    : Spanish
    Service kind                : Complete Main
    Default                     : Yes
    Forced                      : Yes

    Audio #2
    ID                          : 3
    Format                      : AC-3
    Format/Info                 : Audio Coding 3
    Commercial name             : Dolby Digital
    Codec ID                    : A_AC3
    Duration                    : 2 h 1 min
    Bit rate mode               : Constant
    Bit rate                    : 448 kb/s
    Channel(s)                  : 6 channels
    Channel layout              : L R C LFE Ls Rs
    Sampling rate               : 48.0 kHz
    Frame rate                  : 31.250 FPS (1536 SPF)
    Bit depth                   : 16 bits
    Compression mode            : Lossy
    Delay relative to video     : -5 ms
    Stream size                 : 390 MiB (11%)
    Title                       : AC3_5.1_Bluray_Eng
    Language                    : English
    Service kind                : Complete Main
    Default                     : No
    Forced                      : No

    Text #1
    ID                          : 4
    Format                      : UTF-8
    Codec ID                    : S_TEXT/UTF8
    Codec ID/Info               : UTF-8 Plain Text
    Duration                    : 1 h 47 min
    Bit rate                    : 1 b/s
    Count of elements           : 37
    Stream size                 : 1.02 KiB (0%)
    Title                       : Sub_Forzados
    Language                    : Spanish
    Default                     : Yes
    Forced                      : Yes

    Text #2
    ID                          : 5
    Format                      : UTF-8
    Codec ID                    : S_TEXT/UTF8
    Codec ID/Info               : UTF-8 Plain Text
    Duration                    : 1 h 57 min
    Bit rate                    : 44 b/s
    Count of elements           : 1192
    Stream size                 : 38.6 KiB (0%)
    Title                       : Sub_Esp
    Language                    : Spanish
    Default                     : No
    Forced                      : No

    Text #3
    ID                          : 6
    Format                      : UTF-8
    Codec ID                    : S_TEXT/UTF8
    Codec ID/Info               : UTF-8 Plain Text
    Duration                    : 1 h 58 min
    Bit rate                    : 55 b/s
    Count of elements           : 1735
    Stream size                 : 47.9 KiB (0%)
    Title                       : Sub_Eng
    Language                    : English
    Default                     : No
    Forced                      : No

    Menu
    00:00:00.000                : en:Studio Logo
    00:00:14.000                : en:Makeup
    00:01:31.000                : en:Broken Sign
    00:03:42.000                : en:Therapy
    00:07:41.000                : en:Bus
    00:09:14.000                : en:Meeting Murray
    00:15:20.000                : en:Protection
    00:19:12.000                : en:Enter Sophie
    00:21:00.000                : en:Bath
    00:23:33.000                : en:Following
    00:24:52.000                : en:Comedy Scout
    00:26:00.000                : en:Invite
    00:27:58.000                : en:Hospital Gig
    00:29:22.000                : en:Subway Scuffle
    00:34:09.000                : en:Fleeing
    00:36:13.000                : en:First Kiss
    00:36:45.000                : en:Punching Out
    00:38:13.000                : en:Wayne Interview
    00:39:55.000                : en:Negative Thoughts
    00:42:13.000                : en:Open Mic
    00:45:14.000                : en:Date
    00:46:20.000                : en:Letter to Wayne
    00:50:22.000                : en:Clipping
    00:51:11.000                : en:Wayne Manor
    00:55:15.000                : en:Emergency
    00:56:18.000                : en:Detectives
    00:58:31.000                : en:Arthur on T.V.
    01:01:00.000                : en:Protest Coverage
    01:02:17.000                : en:Meeting Wayne
    01:07:10.000                : en:Invitation
    01:09:35.000                : en:Arkham
    01:13:25.000                : en:Penny's File
    01:15:40.000                : en:Sophie's Place
    01:19:48.000                : en:Life's a Comedy
    01:22:11.000                : en:Practice
    01:24:27.000                : en:Randall and Gary visit Arthur
    01:30:14.000                : en:Stairwell Waltz
    01:34:50.000                : en:Dressing Room
    01:37:01.000                : en:Arthur's Big Moment
    01:46:34.000                : en:Riot
    01:49:04.000                : en:Crime Alley
    01:50:01.000                : en:Joker's Fans
    01:52:32.000                : en:Thinking of a Joke
    01:55:38.000                : en:End Credits

  • Peso: 3.59 GiB

Sinopsis

Descargar Guasón (2019) 1080p Latino. Arthur Fleck es un hombre ignorado por la sociedad, cuya motivación en la vida es hacer reír. Pero una serie de trágicos acontecimientos le llevarán a ver el mundo de otra forma. Película basada en Joker, el popular personaje de DC Comics y archivillano de Batman, pero que en este film toma un cariz más realista y oscuro.

Ficha técnica

Video trailer de la película

Enlaces de descarga

Rip de Bluray

Descargar Guasón (2019) 1080p Latino




Aportes de DPeliculasHDmega la pass es:dpeliculashdmega.org Aportes de CinemaniaHD la pass es:cinemaniahdd.com
Guardado en : Crimen , Drama , HD 1080p , Suspenso

Películas relacionadas

Guasón (2019) 1080p Latino pelicula full hd, Guasón (2019) 1080p Latino mega latino, Guasón (2019) 1080p Latino 4k latino, Guasón (2019) 1080p Latino pelicula completa, Guasón (2019) 1080p Latino descargar gratis, descargar Guasón (2019) 1080p Latino pelicula latino, Guasón (2019) 1080p Latino 1 link mega, Guasón (2019) 1080p Latino 1 link google drive, Guasón (2019) 1080p Latino hd 1080p latino.
Comentarios 1
  • wopero - 16 diciembre, 2019

    Son los mejores, gracias