×

¿Problemas para descargar con Mozilla, EDGE? Deshabilita la opción "Abrir vinculos en una pestaña nueva" tal como lo muestra ésta imagen.

Jojo Rabbit (2019) 1080p Latino

3.664 vistas

Información de Jojo Rabbit (2019) 1080p Latino

Datos de la película

  • Calidad: 1080p
  • Audio: Español Latino AC3 5.1 BLURAY - Ingles AC3 5.1 BLURAY
  • Subtitulos: Español Latino SRT- FORZADOS SRT
  • Resolución: 1920x1036
  • Formato: MKV
  • Codec: H.264
  • Encoder: cinemaniahdd
  • Mediainfo: Clic para Mostrar Datos Ver
  • Jojo Rabbit (2019) 1080p Latino.mkv
    Format                      : Matroska
    Format version              : Version 4
    File size                   : 3.32 GiB
    Duration                    : 1 h 48 min
    Overall bit rate            : 4 381 kb/s
    Movie name                  : Jojo Rabbit (2019) - CinemaniaHDD.Net
    Encoded date                : UTC 2020-02-07 03:02:47
    Writing application         : mkvmerge v42.0.0 ('Overtime') 64-bit
    Writing library             : libebml v1.3.10 + libmatroska v1.5.2

    Video
    ID                          : 1
    Format                      : AVC
    Format/Info                 : Advanced Video Codec
    Format profile              : Main@L4
    Format settings             : CABAC / 4 Ref Frames
    Format settings, CABAC      : Yes
    Format settings, ReFrames   : 4 frames
    Codec ID                    : V_MPEG4/ISO/AVC
    Duration                    : 1 h 48 min
    Bit rate                    : 3 500 kb/s
    Width                       : 1 920 pixels
    Height                      : 1 036 pixels
    Display aspect ratio        : 1.85:1
    Frame rate mode             : Constant
    Frame rate                  : 23.976 (24000/1001) FPS
    Color space                 : YUV
    Chroma subsampling          : 4:2:0
    Bit depth                   : 8 bits
    Scan type                   : Progressive
    Bits/(Pixel*Frame)          : 0.073
    Stream size                 : 2.64 GiB (80%)
    Title                       : CinemaniaHDD
    Writing library             : x264 core 157 r2935 545de2f
    Encoding settings           : cabac=1 / ref=3 / deblock=1:0:0 / analyse=0x1:0x111 / me=hex / subme=7 / psy=1 / psy_rd=1.00:0.00 / mixed_ref=1 / me_range=16 / chroma_me=1 / trellis=1 / 8x8dct=0 / cqm=0 / deadzone=21,11 / fast_pskip=1 / chroma_qp_offset=-2 / threads=32 / lookahead_threads=5 / sliced_threads=0 / nr=0 / decimate=1 / interlaced=0 / bluray_compat=0 / constrained_intra=0 / bframes=3 / b_pyramid=2 / b_adapt=1 / b_bias=0 / direct=1 / weightb=1 / open_gop=0 / weightp=2 / keyint=240 / keyint_min=24 / scenecut=40 / intra_refresh=0 / rc_lookahead=40 / rc=abr / mbtree=1 / bitrate=3500 / ratetol=1.0 / qcomp=0.60 / qpmin=0 / qpmax=69 / qpstep=4 / vbv_maxrate=20000 / vbv_bufsize=25000 / nal_hrd=none / filler=0 / ip_ratio=1.40 / aq=1:1.00
    Default                     : Yes
    Forced                      : No
    Color range                 : Limited
    Color primaries             : BT.709
    Transfer characteristics    : BT.709
    Matrix coefficients         : BT.709

    Audio #1
    ID                          : 2
    Format                      : AC-3
    Format/Info                 : Audio Coding 3
    Commercial name             : Dolby Digital
    Codec ID                    : A_AC3
    Duration                    : 1 h 48 min
    Bit rate mode               : Constant
    Bit rate                    : 448 kb/s
    Channel(s)                  : 6 channels
    Channel layout              : L R C LFE Ls Rs
    Sampling rate               : 48.0 kHz
    Frame rate                  : 31.250 FPS (1536 SPF)
    Bit depth                   : 16 bits
    Compression mode            : Lossy
    Delay relative to video     : 28 ms
    Stream size                 : 347 MiB (10%)
    Title                       : Español latino [CinemaniaHDD]
    Language                    : Spanish
    Service kind                : Complete Main
    Default                     : Yes
    Forced                      : No

    Audio #2
    ID                          : 3
    Format                      : AC-3
    Format/Info                 : Audio Coding 3
    Commercial name             : Dolby Digital
    Codec ID                    : A_AC3
    Duration                    : 1 h 48 min
    Bit rate mode               : Constant
    Bit rate                    : 448 kb/s
    Channel(s)                  : 6 channels
    Channel layout              : L R C LFE Ls Rs
    Sampling rate               : 48.0 kHz
    Frame rate                  : 31.250 FPS (1536 SPF)
    Bit depth                   : 16 bits
    Compression mode            : Lossy
    Delay relative to video     : -5 ms
    Stream size                 : 347 MiB (10%)
    Title                       : Inglés [CinemaniaHDD]
    Language                    : English
    Service kind                : Complete Main
    Default                     : No
    Forced                      : No

    Text #1
    ID                          : 4
    Format                      : UTF-8
    Codec ID                    : S_TEXT/UTF8
    Codec ID/Info               : UTF-8 Plain Text
    Duration                    : 24 min 57 s
    Bit rate                    : 0 b/s
    Count of elements           : 6
    Stream size                 : 151 Bytes (0%)
    Title                       : Forzados [CinemaniaHDD]
    Language                    : Spanish
    Default                     : Yes
    Forced                      : Yes

    Text #2
    ID                          : 5
    Format                      : UTF-8
    Codec ID                    : S_TEXT/UTF8
    Codec ID/Info               : UTF-8 Plain Text
    Duration                    : 1 h 42 min
    Bit rate                    : 63 b/s
    Count of elements           : 1400
    Stream size                 : 48.0 KiB (0%)
    Title                       : Español latino [CinemaniaHDD]
    Language                    : Spanish
    Default                     : No
    Forced                      : No

    Menu
    00:00:00.000                : :Chapter 1
    00:06:05.073                : :Chapter 2
    00:09:25.607                : :Chapter 3
    00:13:34.689                : :Chapter 4
    00:16:17.226                : :Chapter 5
    00:20:09.500                : :Chapter 6
    00:27:09.628                : :Chapter 7
    00:31:02.861                : :Chapter 8
    00:36:30.230                : :Chapter 9
    00:39:45.967                : :Chapter 10
    00:44:13.359                : :Chapter 11
    00:49:53.949                : :Chapter 12
    00:53:17.194                : :Chapter 13
    00:59:35.197                : :Chapter 14
    01:03:34.019                : :Chapter 15
    01:08:32.567                : :Chapter 16
    01:14:20.498                : :Chapter 17
    01:17:36.652                : :Chapter 18
    01:22:13.387                : :Chapter 19
    01:26:20.759                : :Chapter 20
    01:29:25.068                : :Chapter 21
    01:32:28.209                : :Chapter 22
    01:37:15.455                : :Chapter 23
    01:41:03.182                : :Chapter 24

     

  • Peso: 3.32 GiB

Sinopsis

Jojo Rabbit es un niño viviendo en plena 2ª Guerra Mundial. Su único escape es su amigo imaginario, una versión de Hitler étnicamente incorrecta que incita los ciegos ideales patrióticos del niño. Todo esto cambia cuando descubre que su madre Rosie está escondiendo a una joven judía en su ático.

Ficha técnica

Video trailer de la película

Enlaces de descarga

Rip de Bluray

Descargar Jojo Rabbit (2019) 1080p Latino




Aportes de DPeliculasHDmega la pass es:dpeliculashdmega.org Aportes de CinemaniaHD la pass es:cinemaniahdd.com
Guardado en : Bélica , Comedia , Drama , HD 1080p

Películas relacionadas

descargar Jojo Rabbit (2019) 1080p Latino 1080p 1080p gratis, Jojo Rabbit (2019) 1080p Latino 1080p mega 1 link, Jojo Rabbit (2019) 1080p Latino 1080p pelicula completa, descargar Jojo Rabbit (2019) 1080p Latino 1080p gratis en mega.

Jojo Rabbit (2019) 1080p Latino pelicula full hd, Jojo Rabbit (2019) 1080p Latino mega latino, Jojo Rabbit (2019) 1080p Latino 4k latino, Jojo Rabbit (2019) 1080p Latino pelicula completa, Jojo Rabbit (2019) 1080p Latino descargar gratis, descargar Jojo Rabbit (2019) 1080p Latino pelicula latino, Jojo Rabbit (2019) 1080p Latino 1 link mega, Jojo Rabbit (2019) 1080p Latino 1 link google drive, Jojo Rabbit (2019) 1080p Latino hd 1080p latino.
Comentarios 0