×

¿Problemas para descargar con Mozilla, EDGE? Deshabilita la opción "Abrir vinculos en una pestaña nueva" tal como lo muestra ésta imagen.

Jojo Rabbit (2019) REMUX 1080p Latino

766 vistas

Información de Jojo Rabbit (2019) REMUX 1080p Latino

Datos de la película

  • Calidad: Full 1080p
  • Audio: Español Latino AC3 5.1 BLURAY - Ingles DTS 5.1 BLURAY
  • Subtitulos: Español Latino PGS - Ingles PGS
  • Resolución: 1920x1080p
  • Formato: MKV
  • Codec: H.264
  • Encoder: CinefiloCool
  • Mediainfo: Clic para Mostrar Datos Ver
  • Jojo Rabbit (2019) REMUX 1080p Latino-CMHDD.mkv
    Format                      : Matroska
    Format version              : Version 4
    File size                   : 23.2 GiB
    Duration                    : 1 h 48 min
    Overall bit rate mode       : Variable
    Overall bit rate            : 30.7 Mb/s
    Movie name                  : CinemaniaHDD.Net
    Encoded date                : UTC 2020-02-12 00:41:53
    Writing application         : mkvmerge v42.0.0 ('Overtime') 64-bit
    Writing library             : libebml v1.3.10 + libmatroska v1.5.2
    Attachments                 : CINEMANIAHD.png

    Video
    ID                          : 1
    Format                      : AVC
    Format/Info                 : Advanced Video Codec
    Format profile              : High@L4.1
    Format settings             : CABAC / 2 Ref Frames
    Format settings, CABAC      : Yes
    Format settings, ReFrames   : 2 frames
    Codec ID                    : V_MPEG4/ISO/AVC
    Duration                    : 1 h 48 min
    Bit rate mode               : Variable
    Bit rate                    : 26.8 Mb/s
    Width                       : 1 920 pixels
    Height                      : 1 080 pixels
    Display aspect ratio        : 16:9
    Frame rate mode             : Constant
    Frame rate                  : 23.976 (24000/1001) FPS
    Color space                 : YUV
    Chroma subsampling          : 4:2:0
    Bit depth                   : 8 bits
    Scan type                   : Progressive
    Bits/(Pixel*Frame)          : 0.540
    Stream size                 : 20.3 GiB (88%)
    Title                       : Full HD1080p [REMUX]
    Default                     : Yes
    Forced                      : Yes

    Audio #1
    ID                          : 2
    Format                      : AC-3
    Format/Info                 : Audio Coding 3
    Commercial name             : Dolby Digital
    Codec ID                    : A_AC3
    Duration                    : 1 h 48 min
    Bit rate mode               : Constant
    Bit rate                    : 448 kb/s
    Channel(s)                  : 6 channels
    Channel layout              : L R C LFE Ls Rs
    Sampling rate               : 48.0 kHz
    Frame rate                  : 31.250 FPS (1536 SPF)
    Bit depth                   : 16 bits
    Compression mode            : Lossy
    Stream size                 : 347 MiB (1%)
    Title                       : AC3_5.1_Bluray_Esp
    Language                    : Spanish
    Service kind                : Complete Main
    Default                     : Yes
    Forced                      : Yes

    Audio #2
    ID                          : 3
    Format                      : DTS XLL
    Format/Info                 : Digital Theater Systems
    Commercial name             : DTS-HD Master Audio
    Codec ID                    : A_DTS
    Duration                    : 1 h 48 min
    Bit rate mode               : Variable
    Bit rate                    : 3 341 kb/s
    Channel(s)                  : 6 channels
    Channel layout              : C L R Ls Rs LFE
    Sampling rate               : 48.0 kHz
    Frame rate                  : 93.750 FPS (512 SPF)
    Bit depth                   : 24 bits
    Compression mode            : Lossless
    Stream size                 : 2.53 GiB (11%)
    Title                       : DTS-HD_5.1_Bluray_Eng
    Language                    : English
    Default                     : No
    Forced                      : No

    Text #1
    ID                          : 4
    Format                      : PGS
    Muxing mode                 : zlib
    Codec ID                    : S_HDMV/PGS
    Codec ID/Info               : Picture based subtitle format used on BDs/HD-DVDs
    Duration                    : 24 min 56 s
    Bit rate                    : 593 b/s
    Count of elements           : 12
    Stream size                 : 108 KiB (0%)
    Title                       : Sub_Forzados [PGS]
    Language                    : Spanish
    Default                     : Yes
    Forced                      : Yes

    Text #2
    ID                          : 5
    Format                      : PGS
    Muxing mode                 : zlib
    Codec ID                    : S_HDMV/PGS
    Codec ID/Info               : Picture based subtitle format used on BDs/HD-DVDs
    Duration                    : 1 h 47 min
    Bit rate                    : 33.8 kb/s
    Count of elements           : 2910
    Stream size                 : 26.0 MiB (0%)
    Title                       : Sub_Esp [PGS]
    Language                    : Spanish
    Default                     : No
    Forced                      : No

    Text #3
    ID                          : 6
    Format                      : PGS
    Muxing mode                 : zlib
    Codec ID                    : S_HDMV/PGS
    Codec ID/Info               : Picture based subtitle format used on BDs/HD-DVDs
    Duration                    : 1 h 48 min
    Bit rate                    : 40.7 kb/s
    Count of elements           : 3588
    Stream size                 : 31.5 MiB (0%)
    Title                       : Sub_Eng [PGS]
    Language                    : English
    Default                     : No
    Forced                      : No

    Text #4
    ID                          : 7
    Format                      : UTF-8
    Codec ID                    : S_TEXT/UTF8
    Codec ID/Info               : UTF-8 Plain Text
    Duration                    : 24 min 57 s
    Bit rate                    : 0 b/s
    Count of elements           : 6
    Stream size                 : 151 Bytes (0%)
    Title                       : Sub_Forzados
    Language                    : Spanish
    Default                     : No
    Forced                      : No

    Text #5
    ID                          : 8
    Format                      : UTF-8
    Codec ID                    : S_TEXT/UTF8
    Codec ID/Info               : UTF-8 Plain Text
    Duration                    : 1 h 42 min
    Bit rate                    : 63 b/s
    Count of elements           : 1400
    Stream size                 : 48.0 KiB (0%)
    Title                       : Sub_Esp
    Language                    : Spanish
    Default                     : No
    Forced                      : No

    Menu
    00:00:00.000                : en:Chapter 01
    00:06:04.655                : en:Chapter 02
    00:09:25.523                : en:Chapter 03
    00:13:34.522                : en:Chapter 04
    00:16:17.059                : en:Chapter 05
    00:20:09.333                : en:Chapter 06
    00:27:09.169                : en:Chapter 07
    00:31:02.861                : en:Chapter 08
    00:36:29.812                : en:Chapter 09
    00:39:45.966                : en:Chapter 10
    00:44:13.192                : en:Chapter 11
    00:49:53.782                : en:Chapter 12
    00:53:17.194                : en:Chapter 13
    00:59:35.113                : en:Chapter 14
    01:03:34.018                : en:Chapter 15
    01:08:32.483                : en:Chapter 16
    01:14:20.497                : en:Chapter 17
    01:17:36.276                : en:Chapter 18
    01:22:13.720                : en:Chapter 19
    01:26:20.300                : en:Chapter 20
    01:29:24.525                : en:Chapter 21
    01:32:28.042                : en:Chapter 22
    01:37:15.037                : en:Chapter 23
    01:41:03.015                : en:Chapter 24

  • Peso: 23.2 GiB

Sinopsis

Descargar Jojo Rabbit (2019) REMUX 1080p Latino. Jojo «Rabbit» Betzler (Roman Griffin Davis) es un joven y solitario niño alemán perteneciente a las Juventudes Hitlerianas que ve su mundo puesto patas arriba cuando descubre que su joven madre Rosie (Scarlett Johansson) esconde en su ático a un niña judía (Thomasin McKenzie). Con la única ayuda de su mejor amigo imaginario, un niño un poco idiota, Jojo deberá enfrentarse a su ciego nacionalismo.

Ficha técnica

Video trailer de la película

Enlaces de descarga

Rip de Bluray

Descargar Jojo Rabbit (2019) REMUX 1080p Latino




Aportes de DPeliculasHDmega la pass es:dpeliculashdmega.org Aportes de CinemaniaHD la pass es:cinemaniahdd.com
Guardado en : Bélica , Comedia , Drama , Remux

Películas relacionadas

descargar Jojo Rabbit (2019) REMUX 1080p Latino Full 1080p 1080p gratis, Jojo Rabbit (2019) REMUX 1080p Latino Full 1080p mega 1 link, Jojo Rabbit (2019) REMUX 1080p Latino Full 1080p pelicula completa, descargar Jojo Rabbit (2019) REMUX 1080p Latino Full 1080p gratis en mega.

Jojo Rabbit (2019) REMUX 1080p Latino pelicula full hd, Jojo Rabbit (2019) REMUX 1080p Latino mega latino, Jojo Rabbit (2019) REMUX 1080p Latino 4k latino, Jojo Rabbit (2019) REMUX 1080p Latino pelicula completa, Jojo Rabbit (2019) REMUX 1080p Latino descargar gratis, descargar Jojo Rabbit (2019) REMUX 1080p Latino pelicula latino, Jojo Rabbit (2019) REMUX 1080p Latino 1 link mega, Jojo Rabbit (2019) REMUX 1080p Latino 1 link google drive, Jojo Rabbit (2019) REMUX 1080p Latino hd 1080p latino.
Comentarios 0