Johnny English (2018) HD 1080p Español Latino

1.309 vistas
1 estrella2 estrellas3 estrellas4 estrellas5 estrellas (Ninguna valoración todavía)
Cargando…

Información de Johnny English (2018) HD 1080p Español Latino

Datos de la película

  • Calidad: 1080p
  • Audio: Español Latino AC3 5.1 DVD - Ingles AC3 5.1 BLURAY
  • Subtitulos: Español Latino SRT
  • Resolución: 1920x804
  • Formato: MKV
  • Codec: H.264
  • Encoder: chesse92
  • Mediainfo: Clic para Mostrar Datos Ver
  • ohnny English Strikes Again (2018) HD 1080p Español Latino 5.1.mkv
    Format                      : Matroska
    Format version              : Version 4
    File size                   : 2.70 GiB
    Duration                    : 1 h 28 min
    Overall bit rate            : 4 364 kb/s
    Movie name                  : CinemaniaHDD.net
    Encoded date                : UTC 2019-01-10 20:12:14 / UTC 2018-12-17T20:49:18Z
    Writing application         : mkvmerge v29.0.0 ('Like It Or Not') 64-bit
    Writing library             : libebml v1.3.6 + libmatroska v1.4.9 / Lavf57.7.2

    Video
    ID                          : 1
    Format                      : AVC
    Format/Info                 : Advanced Video Codec
    Format profile              : [email protected]
    Format settings             : CABAC / 4 Ref Frames
    Format settings, CABAC      : Yes
    Format settings, ReFrames   : 4 frames
    Codec ID                    : V_MPEG4/ISO/AVC
    Duration                    : 1 h 28 min
    Bit rate                    : 3 600 kb/s
    Width                       : 1 920 pixels
    Height                      : 804 pixels
    Display aspect ratio        : 2.40:1
    Frame rate mode             : Constant
    Frame rate                  : 23.976 (24000/1001) FPS
    Color space                 : YUV
    Chroma subsampling          : 4:2:0
    Bit depth                   : 8 bits
    Scan type                   : Progressive
    Bits/(Pixel*Frame)          : 0.097
    Stream size                 : 2.13 GiB (79%)
    Writing library             : x264 core 155 r2901 7d0ff22
    Encoding settings           : cabac=1 / ref=3 / deblock=1:0:0 / analyse=0x3:0x113 / me=hex / subme=7 / psy=1 / psy_rd=1.00:0.00 / mixed_ref=1 / me_range=16 / chroma_me=1 / trellis=1 / 8x8dct=1 / cqm=0 / deadzone=21,11 / fast_pskip=1 / chroma_qp_offset=-2 / threads=25 / lookahead_threads=4 / sliced_threads=0 / nr=0 / decimate=1 / interlaced=0 / bluray_compat=0 / constrained_intra=0 / bframes=3 / b_pyramid=2 / b_adapt=1 / b_bias=0 / direct=1 / weightb=1 / open_gop=0 / weightp=2 / keyint=240 / keyint_min=24 / scenecut=40 / intra_refresh=0 / rc_lookahead=40 / rc=abr / mbtree=1 / bitrate=3600 / ratetol=1.0 / qcomp=0.60 / qpmin=0 / qpmax=69 / qpstep=4 / vbv_maxrate=62500 / vbv_bufsize=78125 / nal_hrd=none / filler=0 / ip_ratio=1.40 / aq=1:1.00
    Default                     : Yes
    Forced                      : No
    Color range                 : Limited
    Color primaries             : BT.709
    Transfer characteristics    : BT.709
    Matrix coefficients         : BT.709
    Statistics Tags Issue       : mkvmerge v29.0.0 ('Like It Or Not') 64-bit 2019-01-10 20:12:14 / mkvmerge v29.0.0 ('Like It Or Not') 64-bit 2019-01-10 20:12:14 / UTC 2018-12-17T20:49:18Z
    FromStats_BitRate           : 3529898
    FromStats_Duration          : 01:28:33.183000000
    FromStats_FrameCount        : 127389
    FromStats_StreamSize        : 2344374874

    Audio #1
    ID                          : 2
    Format                      : AC-3
    Format/Info                 : Audio Coding 3
    Commercial name             : Dolby Digital
    Codec ID                    : A_AC3
    Duration                    : 1 h 28 min
    Bit rate mode               : Constant
    Bit rate                    : 384 kb/s
    Channel(s)                  : 6 channels
    Channel layout              : L R C LFE Ls Rs
    Sampling rate               : 48.0 kHz
    Frame rate                  : 31.250 FPS (1536 SPF)
    Bit depth                   : 16 bits
    Compression mode            : Lossy
    Delay relative to video     : -5 ms
    Stream size                 : 243 MiB (9%)
    Title                       : Español Latino / www.cinemaniahdd.net
    Service kind                : Complete Main
    Default                     : Yes
    Forced                      : No
    Statistics Tags Issue       : mkvmerge v29.0.0 ('Like It Or Not') 64-bit 2019-01-10 20:12:14 / mkvmerge v29.0.0 ('Like It Or Not') 64-bit 2019-01-10 20:12:14 / UTC 2018-12-17T20:49:18Z
    FromStats_BitRate           : 384000
    FromStats_Duration          : 01:28:33.184000000
    FromStats_FrameCount        : 166037
    FromStats_StreamSize        : 255032832

    Audio #2
    ID                          : 3
    Format                      : AC-3
    Format/Info                 : Audio Coding 3
    Commercial name             : Dolby Digital
    Codec ID                    : A_AC3
    Duration                    : 1 h 28 min
    Bit rate mode               : Constant
    Bit rate                    : 448 kb/s
    Channel(s)                  : 6 channels
    Channel layout              : L R C LFE Ls Rs
    Sampling rate               : 48.0 kHz
    Frame rate                  : 31.250 FPS (1536 SPF)
    Bit depth                   : 16 bits
    Compression mode            : Lossy
    Stream size                 : 284 MiB (10%)
    Title                       : Surround
    Language                    : English
    Service kind                : Complete Main
    Default                     : No
    Forced                      : No
    Statistics Tags Issue       : mkvmerge v29.0.0 ('Like It Or Not') 64-bit 2019-01-10 20:12:14 / mkvmerge v29.0.0 ('Like It Or Not') 64-bit 2019-01-10 20:12:14 / UTC 2018-12-17T20:49:18Z
    FromStats_BitRate           : 448000
    FromStats_Duration          : 01:28:33.184000000
    FromStats_FrameCount        : 166037
    FromStats_StreamSize        : 297538304

    Text #1
    ID                          : 4
    Format                      : UTF-8
    Codec ID                    : S_TEXT/UTF8
    Codec ID/Info               : UTF-8 Plain Text
    Language                    : Spanish
    Default                     : Yes
    Forced                      : No
    Statistics Tags Issue       : mkvmerge v29.0.0 ('Like It Or Not') 64-bit 2019-01-10 20:12:14 / mkvmerge v29.0.0 ('Like It Or Not') 64-bit 2019-01-10 20:12:14 / UTC 2018-12-17T20:49:18Z
    FromStats_BitRate           : 53
    FromStats_Duration          : 01:22:43.100000000
    FromStats_FrameCount        : 1025
    FromStats_StreamSize        : 33428

    Text #2
    ID                          : 5
    Format                      : UTF-8
    Codec ID                    : S_TEXT/UTF8
    Codec ID/Info               : UTF-8 Plain Text
    Language                    : Spanish
    Default                     : No
    Forced                      : Yes
    Statistics Tags Issue       : mkvmerge v29.0.0 ('Like It Or Not') 64-bit 2019-01-10 20:12:14 / mkvmerge v29.0.0 ('Like It Or Not') 64-bit 2019-01-10 20:12:14 / UTC 2018-12-17T20:49:18Z
    FromStats_BitRate           : 1
    FromStats_Duration          : 01:02:34.898000000
    FromStats_FrameCount        : 24
    FromStats_StreamSize        : 555

    Menu
    00:00:00.000                : :Chapter 1
    00:05:06.807                : :Chapter 2
    00:09:05.545                : :Chapter 3
    00:13:14.794                : :Chapter 4
    00:19:22.370                : :Chapter 5
    00:21:31.999                : :Chapter 6
    00:26:42.142                : :Chapter 7
    00:32:31.241                : :Chapter 8
    00:34:48.086                : :Chapter 9
    00:39:49.429                : :Chapter 10
    00:45:49.288                : :Chapter 11
    00:51:22.371                : :Chapter 12
    00:54:31.852                : :Chapter 13
    00:58:58.368                : :Chapter 14
    01:02:58.566                : :Chapter 15
    01:08:21.598                : :Chapter 16
    01:11:41.130                : :Chapter 17
    01:15:03.416                : :Chapter 18
    01:20:54.975                : :Chapter 19
    01:23:52.528                : :Chapter 20

  • Peso: 2.70 GiB

Sinopsis

Con Rowan Atkinson nuevamente como el agente secreto, la nueva historia comienza cuando un ataque cibernético revela la identidad de todos los agentes encubiertos activos en Gran Bretaña, dejando a Johnny English como la última esperanza del Servicio Secreto. Llamado a retirarse, el inglés se lanza a la acción con la misión de encontrar al pirata informático. Como un hombre con pocas habilidades y métodos análogos, Johnny English debe superar los desafíos de la tecnología moderna para hacer de esta misión un éxito.

Ficha técnica

  • Titulo original: Johnny English Strikes Again
  • Fecha de lanzamiento: 13-09-2018 (France, United Kingdom, United States of America)
  • Director: David Kerr
  • Género: Acción, Aventura, Comedia, Familia, HD 1080p
  • Puntuación: 0.0 0 votos
  • Duración:
    1h 29m

Video trailer de la película

Enlaces de descarga

Rip de Bluray

Descargar Johnny English (2018) HD 1080p Español Latino




Aportes de DPeliculasHDmega la pass es:dpeliculashdmega.org Aportes de CinemaniaHD la pass es:cinemaniahdd.com
Guardado en : Acción , Aventura , Comedia , Familia , HD 1080p

Películas relacionadas

  • Swing (2018) WEB-DL 1080p Latino

    2018
    Swing (2018) WEB-DL 1080p Latino

    0.0 1h 44m 2018

    En una noche en la que predomina el alcohol, cuatro amigos deciden intercambiar a sus parejas. Esta decisión...

    Director: Luis Smok

    Género: Comedia

    Actores: Tiago Correa

  • Aquaman (2018) Full HD 1080p Latino

    2018
    Aquaman (2018) Full HD 1080p Latino

    5.0 2h 24m 2018

    Un icono durante más de 70 años, Aquaman (Jason Momoa) es el Rey de los Siete Mares. Este reacio gobernante...

    Director: James Wan

    Género: Acción

    Actores: Yahya Abdul-Mateen II

  • Bumblebee (2018) WEB-DL 1080p Castellano

    2018
    Bumblebee (2018) WEB-DL 1080p Castellano

    3.0 1h 54m 2018

    Sexta entrega de la saga 'Transformers', esta vez centrada en el "hermano pequeño" de los Autobots,...

    Director: Travis Knight

    Género: Acción

    Actores: Yianni Apostolopolous

  • Robin Hood (2018) 4K UHD HDR Latino

    2018
    Robin Hood (2018) 4K UHD HDR Latino

    0.0 1h 56m 2018

    Descargar Robin Hood (2018) 4K UHD HDR Latino, Mega, Google Drive. Cuando el joven Robin Hood (Taron...

    Director: Otto Bathurst

    Género: 4K HDR

    Actores: Yasen Atour

Comentarios 0