Johnny English 3.0 (2018) Full 1080p Latino

1.584 vistas
1 estrella2 estrellas3 estrellas4 estrellas5 estrellas (4 votos, promedio: 5,00 de 5)
Cargando…

Información de Johnny English 3.0 (2018) Full 1080p Latino

Datos de la película

  • Calidad: Full 1080p
  • Audio: Español Latino DTS 5.1 BLURAY - Ingles DTS 5.1 BLURAY
  • Subtitulos: Español Latino PGS - Ingles PGS
  • Resolución: 1920x1080p
  • Formato: MKV
  • Codec: H.264
  • Encoder: CinemaniaHDD
  • Mediainfo: Clic para Mostrar Datos Ver
  • Johnny English 3.0 (2018) Full 1080p Latino.mkv
    Format                      : Matroska
    Format version              : Version 4
    File size                   : 3.21 GiB
    Duration                    : 1 h 28 min
    Overall bit rate            : 5 189 kb/s
    Movie name                  : CinemaniaHDD.Net
    Encoded date                : UTC 2019-01-11 02:52:09
    Writing application         : mkvmerge v29.0.0 ('Like It Or Not') 64-bit
    Writing library             : libebml v1.3.6 + libmatroska v1.4.9

    Video
    ID                          : 1
    Format                      : AVC
    Format/Info                 : Advanced Video Codec
    Format profile              : [email protected]
    Format settings             : CABAC / 4 Ref Frames
    Format settings, CABAC      : Yes
    Format settings, ReFrames   : 4 frames
    Codec ID                    : V_MPEG4/ISO/AVC
    Duration                    : 1 h 28 min
    Bit rate                    : 2 886 kb/s
    Width                       : 1 920 pixels
    Height                      : 1 080 pixels
    Display aspect ratio        : 16:9
    Frame rate mode             : Constant
    Frame rate                  : 23.976 (24000/1001) FPS
    Color space                 : YUV
    Chroma subsampling          : 4:2:0
    Bit depth                   : 8 bits
    Scan type                   : Progressive
    Bits/(Pixel*Frame)          : 0.058
    Stream size                 : 1.79 GiB (56%)
    Title                       : Full HD1080p [Bluray]
    Writing library             : x264 core 155 r2901 7d0ff22
    Encoding settings           : cabac=1 / ref=4 / deblock=1:0:0 / analyse=0x3:0x133 / me=esa / subme=10 / psy=1 / psy_rd=1.00:0.00 / mixed_ref=1 / me_range=24 / chroma_me=1 / trellis=2 / 8x8dct=1 / cqm=0 / deadzone=21,11 / fast_pskip=1 / chroma_qp_offset=-2 / threads=34 / lookahead_threads=5 / sliced_threads=0 / nr=0 / decimate=1 / interlaced=0 / bluray_compat=0 / constrained_intra=0 / bframes=8 / b_pyramid=2 / b_adapt=2 / b_bias=0 / direct=3 / weightb=1 / open_gop=0 / weightp=2 / keyint=240 / keyint_min=24 / scenecut=40 / intra_refresh=0 / rc_lookahead=60 / rc=crf / mbtree=1 / crf=20.0 / qcomp=0.60 / qpmin=0 / qpmax=69 / qpstep=4 / vbv_maxrate=62500 / vbv_bufsize=78125 / crf_max=0.0 / nal_hrd=none / filler=0 / ip_ratio=1.40 / aq=1:1.00
    Default                     : Yes
    Forced                      : No
    Color range                 : Limited
    Color primaries             : BT.709
    Transfer characteristics    : BT.709
    Matrix coefficients         : BT.709

    Audio #1
    ID                          : 2
    Format                      : DTS
    Format/Info                 : Digital Theater Systems
    Codec ID                    : A_DTS
    Duration                    : 1 h 28 min
    Bit rate mode               : Constant
    Bit rate                    : 768 kb/s
    Channel(s)                  : 6 channels
    Channel layout              : C L R Ls Rs LFE
    Sampling rate               : 48.0 kHz
    Frame rate                  : 93.750 FPS (512 SPF)
    Bit depth                   : 24 bits
    Compression mode            : Lossy
    Stream size                 : 486 MiB (15%)
    Title                       : DTS_5.1_Bluray_Esp
    Language                    : Spanish
    Default                     : Yes
    Forced                      : Yes

    Audio #2
    ID                          : 3
    Format                      : DTS
    Format/Info                 : Digital Theater Systems
    Codec ID                    : A_DTS
    Duration                    : 1 h 28 min
    Bit rate mode               : Constant
    Bit rate                    : 1 509 kb/s
    Channel(s)                  : 6 channels
    Channel layout              : C L R Ls Rs LFE
    Sampling rate               : 48.0 kHz
    Frame rate                  : 93.750 FPS (512 SPF)
    Bit depth                   : 24 bits
    Compression mode            : Lossy
    Stream size                 : 956 MiB (29%)
    Title                       : DTS_5.1_Bluray_Eng
    Language                    : English
    Default                     : No
    Forced                      : No

    Text #1
    ID                          : 4
    Format                      : PGS
    Muxing mode                 : zlib
    Codec ID                    : S_HDMV/PGS
    Codec ID/Info               : Picture based subtitle format used on BDs/HD-DVDs
    Duration                    : 1 h 27 min
    Bit rate                    : 778 b/s
    Count of elements           : 62
    Stream size                 : 499 KiB (0%)
    Title                       : Sub_Forzados [PGS]
    Language                    : Spanish
    Default                     : Yes
    Forced                      : No

    Text #2
    ID                          : 5
    Format                      : PGS
    Muxing mode                 : zlib
    Codec ID                    : S_HDMV/PGS
    Codec ID/Info               : Picture based subtitle format used on BDs/HD-DVDs
    Duration                    : 1 h 27 min
    Bit rate                    : 32.3 kb/s
    Count of elements           : 1860
    Stream size                 : 20.2 MiB (1%)
    Title                       : Sub_Esp [PGS]
    Language                    : Spanish
    Default                     : No
    Forced                      : No

    Text #3
    ID                          : 6
    Format                      : PGS
    Muxing mode                 : zlib
    Codec ID                    : S_HDMV/PGS
    Codec ID/Info               : Picture based subtitle format used on BDs/HD-DVDs
    Duration                    : 1 h 22 min
    Bit rate                    : 45.9 kb/s
    Count of elements           : 2603
    Stream size                 : 27.1 MiB (1%)
    Title                       : Sub_Eng [PGS]
    Language                    : English
    Default                     : No
    Forced                      : No

    Menu
    00:00:00.000                : :Chapter 1
    00:05:06.807                : :Chapter 2
    00:09:05.503                : :Chapter 3
    00:13:14.794                : :Chapter 4
    00:19:22.370                : :Chapter 5
    00:21:31.916                : :Chapter 6
    00:26:42.059                : :Chapter 7
    00:32:31.241                : :Chapter 8
    00:34:48.086                : :Chapter 9
    00:39:49.429                : :Chapter 10
    00:45:49.205                : :Chapter 11
    00:51:22.329                : :Chapter 12
    00:54:31.852                : :Chapter 13
    00:58:58.285                : :Chapter 14
    01:02:58.566                : :Chapter 15
    01:08:21.598                : :Chapter 16
    01:11:41.047                : :Chapter 17
    01:15:03.416                : :Chapter 18
    01:20:54.933                : :Chapter 19
    01:23:52.528                : :Chapter 20

  • Peso: 3.21 GiB

Sinopsis

Descargar Johnny English 3.0 (2018) Full 1080p Latino, Mega, Google Drive, Torrent. Tercera entrega de la saga cómica Johnny English, con Rowan Atkison de regreso en el papel del muy querido agente secreto. Esta nueva aventura empieza cuando un ciberataque revela la identidad de todos los agentes de incógnito de Gran Bretaña, por lo que Johnny English es la última esperanza para los servicios secretos. Al verse sacado de su plácida vida de jubilado, English se lanza sin contemplaciones a la busca y captura del hacker que lo planeó todo. Nuestro héroe, un hombre de pocas habilidades y métodos analógicos, deberá superar los retos que plantea la tecnología moderna para que su misión se convierta en un éxito.

Ficha técnica

Video trailer de la película

Enlaces de descarga

Rip de Bluray

Descargar Johnny English 3.0 (2018) Full 1080p Latino




Aportes de DPeliculasHDmega la pass es:dpeliculashdmega.org Aportes de CinemaniaHD la pass es:cinemaniahdd.com

Películas relacionadas

  • Swing (2018) WEB-DL 1080p Latino

    2018
    Swing (2018) WEB-DL 1080p Latino

    0.0 1h 44m 2018

    En una noche en la que predomina el alcohol, cuatro amigos deciden intercambiar a sus parejas. Esta decisión...

    Director: Luis Smok

    Género: Comedia

    Actores: Tiago Correa

  • Aquaman (2018) Full HD 1080p Latino

    2018
    Aquaman (2018) Full HD 1080p Latino

    5.0 2h 24m 2018

    Un icono durante más de 70 años, Aquaman (Jason Momoa) es el Rey de los Siete Mares. Este reacio gobernante...

    Director: James Wan

    Género: Acción

    Actores: Yahya Abdul-Mateen II

  • Bumblebee (2018) WEB-DL 1080p Castellano

    2018
    Bumblebee (2018) WEB-DL 1080p Castellano

    3.0 1h 54m 2018

    Sexta entrega de la saga 'Transformers', esta vez centrada en el "hermano pequeño" de los Autobots,...

    Director: Travis Knight

    Género: Acción

    Actores: Yianni Apostolopolous

  • Robin Hood (2018) 4K UHD HDR Latino

    2018
    Robin Hood (2018) 4K UHD HDR Latino

    0.0 1h 56m 2018

    Descargar Robin Hood (2018) 4K UHD HDR Latino, Mega, Google Drive. Cuando el joven Robin Hood (Taron...

    Director: Otto Bathurst

    Género: 4K HDR

    Actores: Yasen Atour

Comentarios 0