×

¿Problemas para descargar con Mozilla, EDGE? Deshabilita la opción "Abrir vinculos en una pestaña nueva" tal como lo muestra ésta imagen.

John Wick: Pacto de sangre (2017) Full Latino

15.284 vistas

Información de John Wick: Pacto de sangre (2017) Full Latino

Datos de la película

  • Calidad: Full 1080p
  • Audio: Español Latino AC3 5.1 BLURAY - Ingles AC3 5.1 BLURAY
  • Subtitulos: Español Latino PGS - Ingles PGS
  • Resolución: 1920x1080p
  • Formato: MKV
  • Codec: H.264
  • Encoder: Chesse92
  • Mediainfo: Clic para Mostrar Datos Ver
  • John Wick Chapter 2 (2017) Full 1080p Latino (PLACEBO).mkv
    Format                      : Matroska
    Format version              : Version 4
    File size                   : 4.24 GiB
    Duration                    : 2 h 2 min
    Overall bit rate            : 4 965 kb/s
    Encoded date                : UTC 2019-05-24 01:17:31
    Writing application         : mkvmerge v30.1.0 ('Forever And More') 64-bit
    Writing library             : libebml v1.3.6 + libmatroska v1.4.9 / Lavf58.20.100

    Video
    ID                          : 1
    Format                      : AVC
    Format/Info                 : Advanced Video Codec
    Format profile              : High@L4.1
    Format settings             : CABAC / 4 Ref Frames
    Format settings, CABAC      : Yes
    Format settings, ReFrames   : 4 frames
    Codec ID                    : V_MPEG4/ISO/AVC
    Duration                    : 2 h 2 min
    Bit rate                    : 3 669 kb/s
    Width                       : 1 920 pixels
    Height                      : 1 080 pixels
    Display aspect ratio        : 16:9
    Frame rate mode             : Constant
    Frame rate                  : 23.976 (24000/1001) FPS
    Color space                 : YUV
    Chroma subsampling          : 4:2:0
    Bit depth                   : 8 bits
    Scan type                   : Progressive
    Bits/(Pixel*Frame)          : 0.074
    Stream size                 : 3.14 GiB (74%)
    Writing library             : x264 core 157 r2935 545de2f
    Encoding settings           : cabac=1 / ref=4 / deblock=1:0:0 / analyse=0x3:0x133 / me=tesa / subme=11 / psy=1 / psy_rd=1.00:0.00 / mixed_ref=1 / me_range=24 / chroma_me=1 / trellis=2 / 8x8dct=1 / cqm=0 / deadzone=21,11 / fast_pskip=0 / chroma_qp_offset=-2 / threads=34 / lookahead_threads=8 / sliced_threads=0 / nr=0 / decimate=1 / interlaced=0 / bluray_compat=0 / constrained_intra=0 / bframes=16 / b_pyramid=2 / b_adapt=2 / b_bias=0 / direct=3 / weightb=1 / open_gop=0 / weightp=2 / keyint=240 / keyint_min=24 / scenecut=40 / intra_refresh=0 / rc_lookahead=60 / rc=crf / mbtree=1 / crf=20.0 / qcomp=0.60 / qpmin=0 / qpmax=69 / qpstep=4 / vbv_maxrate=62500 / vbv_bufsize=78125 / crf_max=0.0 / nal_hrd=none / filler=0 / ip_ratio=1.40 / aq=1:1.00
    Default                     : Yes
    Forced                      : No
    Color range                 : Limited
    Color primaries             : BT.709
    Transfer characteristics    : BT.709
    Matrix coefficients         : BT.709

    Audio #1
    ID                          : 2
    Format                      : AC-3
    Format/Info                 : Audio Coding 3
    Commercial name             : Dolby Digital
    Codec ID                    : A_AC3
    Duration                    : 2 h 2 min
    Bit rate mode               : Constant
    Bit rate                    : 640 kb/s
    Channel(s)                  : 6 channels
    Channel layout              : L R C LFE Ls Rs
    Sampling rate               : 48.0 kHz
    Frame rate                  : 31.250 FPS (1536 SPF)
    Bit depth                   : 16 bits
    Compression mode            : Lossy
    Stream size                 : 560 MiB (13%)
    Title                       : Surround
    Language                    : Spanish
    Service kind                : Complete Main
    Default                     : Yes
    Forced                      : No

    Audio #2
    ID                          : 3
    Format                      : AC-3
    Format/Info                 : Audio Coding 3
    Commercial name             : Dolby Digital
    Codec ID                    : A_AC3
    Duration                    : 2 h 2 min
    Bit rate mode               : Constant
    Bit rate                    : 640 kb/s
    Channel(s)                  : 6 channels
    Channel layout              : L R C LFE Ls Rs
    Sampling rate               : 48.0 kHz
    Frame rate                  : 31.250 FPS (1536 SPF)
    Bit depth                   : 16 bits
    Compression mode            : Lossy
    Delay relative to video     : -5 ms
    Stream size                 : 560 MiB (13%)
    Title                       : Surround
    Language                    : English
    Service kind                : Complete Main
    Default                     : No
    Forced                      : No

    Text #1
    ID                          : 4
    Format                      : PGS
    Muxing mode                 : zlib
    Codec ID                    : S_HDMV/PGS
    Codec ID/Info               : Picture based subtitle format used on BDs/HD-DVDs
    Duration                    : 1 h 52 min
    Bit rate                    : 14.0 kb/s
    Count of elements           : 1446
    Stream size                 : 11.3 MiB (0%)
    Language                    : Spanish
    Default                     : No
    Forced                      : No

    Text #2
    ID                          : 5
    Format                      : PGS
    Muxing mode                 : zlib
    Codec ID                    : S_HDMV/PGS
    Codec ID/Info               : Picture based subtitle format used on BDs/HD-DVDs
    Duration                    : 1 h 52 min
    Bit rate                    : 800 b/s
    Count of elements           : 92
    Stream size                 : 661 KiB (0%)
    Language                    : Spanish
    Default                     : No
    Forced                      : No

    Text #3
    ID                          : 6
    Format                      : PGS
    Muxing mode                 : zlib
    Codec ID                    : S_HDMV/PGS
    Codec ID/Info               : Picture based subtitle format used on BDs/HD-DVDs
    Duration                    : 1 h 49 min
    Bit rate                    : 13.4 kb/s
    Count of elements           : 1340
    Stream size                 : 10.5 MiB (0%)
    Language                    : English
    Default                     : No
    Forced                      : No

    Text #4
    ID                          : 7
    Format                      : UTF-8
    Codec ID                    : S_TEXT/UTF8
    Codec ID/Info               : UTF-8 Plain Text
    Duration                    : 1 h 58 min
    Bit rate                    : 1 b/s
    Count of elements           : 64
    Stream size                 : 1.47 KiB (0%)
    Language                    : Spanish
    Default                     : Yes
    Forced                      : No

    Text #5
    ID                          : 8
    Format                      : UTF-8
    Codec ID                    : S_TEXT/UTF8
    Codec ID/Info               : UTF-8 Plain Text
    Duration                    : 1 h 50 min
    Bit rate                    : 23 b/s
    Count of elements           : 719
    Stream size                 : 18.8 KiB (0%)
    Language                    : Spanish
    Default                     : No
    Forced                      : No

    Menu
    00:00:00.000                : :Chapter 1
    00:06:31.683                : :Chapter 2
    00:16:57.934                : :Chapter 3
    00:26:35.594                : :Chapter 4
    00:34:38.159                : :Chapter 5
    00:42:07.817                : :Chapter 6
    00:48:07.051                : :Chapter 7
    00:56:41.773                : :Chapter 8
    01:01:42.824                : :Chapter 9
    01:10:27.682                : :Chapter 10
    01:17:15.923                : :Chapter 11
    01:24:22.641                : :Chapter 12
    01:32:11.276                : :Chapter 13
    01:40:01.329                : :Chapter 14
    01:46:34.847                : :Chapter 15
    01:54:01.043                : :Chapter 16

  • Peso: 4.24 GiB

Sinopsis

Descargar gratis John Wick: Pacto de sangre (2017) Full Latino Mega . John Wick es forzado a salir del retiro por un ex asociado buscando tomar control del gremio internacional de asesinos. Obligado por un juramento de sangre, Wick viaja a Roma, donde luchrá contra algunos de los asesinos más mortales del mundo.

 

Ficha técnica

Video trailer de la película

Enlaces de descarga

Rip de Bluray

Descargar John Wick: Pacto de sangre (2017) Full Latino




Aportes de DPeliculasHDmega la pass es:dpeliculashdmega.org Aportes de CinemaniaHD la pass es:cinemaniahdd.com

Películas relacionadas

descargar John Wick: Pacto de sangre (2017) Full Latino Full 1080p 1080p gratis, John Wick: Pacto de sangre (2017) Full Latino Full 1080p mega 1 link, John Wick: Pacto de sangre (2017) Full Latino Full 1080p pelicula completa, descargar John Wick: Pacto de sangre (2017) Full Latino Full 1080p gratis en mega.

John Wick: Pacto de sangre (2017) Full Latino pelicula full hd, John Wick: Pacto de sangre (2017) Full Latino mega latino, John Wick: Pacto de sangre (2017) Full Latino 4k latino, John Wick: Pacto de sangre (2017) Full Latino pelicula completa, John Wick: Pacto de sangre (2017) Full Latino descargar gratis, descargar John Wick: Pacto de sangre (2017) Full Latino pelicula latino, John Wick: Pacto de sangre (2017) Full Latino 1 link mega, John Wick: Pacto de sangre (2017) Full Latino 1 link google drive, John Wick: Pacto de sangre (2017) Full Latino hd 1080p latino.
Comentarios 22
  • Oswaldo - 24 febrero, 2018

    Hola Buenas tardes, podrían subir de nuevo John Wick 2. Full 1920×1080? muchas gracias es que estos enlaces no funcionan.

  • Omar - 24 junio, 2017

    Amigo hoy 24 de junio, descargué todo menos la parte 5, da error, parece que no está en linea. y los enlaces de uptobox y uploader no existen. Saludos.

    • dpelis - 24 junio, 2017

      ese de mega es error. ya consumio el limite de bajada. 1fichier disponible, mas tarde resubire. saludos

  • scttato - 08 junio, 2017

    oye, el blu ray es el blu ray original!? viene completa la pelicula? porque dice RIP y tengo entendido esas son cortadas o algo asi, viene tambien la edicion extendida o como esta esto?? para ver si la descargo. PD: los subtitulos en ingles son parte de la pelicula porque hablan en otros idiomas, desde la 1 vienen asi

    • dpelis - 09 junio, 2017

      estimado este no es bluray USA, es un bluray mexicano. la 1 es asi subtitulos pegados pero son mas chico pero es bluray USA. en este caso los subtitulos son as grandes, es bluray mexico. solo es una version normal

  • Brian - 07 junio, 2017

    Hola. Cuando copio las partes y las pego en el gestor de mega , me da error. Ya trate de bajar todas las partes de nuevo

    • dpelis - 07 junio, 2017

      mega anda mal. no se pude descargar mucho. Pone limite es porq eso q le da error

  • Brian - 06 junio, 2017

    Hola, ayer baja los link de esta pelicula, pero me dio error de vuelta por mega, a partir del 4to link. saludos

    • dpelis - 06 junio, 2017

      mencione que debe bajar todas las partes de nuevo desde 1 al 5

  • luis - 04 junio, 2017

    la parte 5 sale error , ya la voy bajando tres veces….

    • dpelis - 04 junio, 2017

      leer antes descargar, ya mencione. descargar todo de nuevo

  • Ragnarok - 04 junio, 2017

    y la otra versión de John no tiene el problema de los subs forzados en inglés o solo esta versión?

    • dpelis - 04 junio, 2017

      solo esta, ya que es una version de bluray mexico

  • Byron - 04 junio, 2017

    Bueno, tocara hacerlo, subiran la primera??

  • jose - 04 junio, 2017

    hay que descargar toda la pelicula de nuevo si ya descague toda las 4 partes si solo me pide la perte 5?

  • mac - 04 junio, 2017

    da error al descomprimir falta parte 5

    • dpelis - 04 junio, 2017

      ahi comente xq descargar de nuevo, porq se volvio a comprimir de nuevo

  • hunga - 04 junio, 2017

    Falta subir la parte 5? ya que al descomprimir solicita ese archivo. Vuando estara disponible

    • dpelis - 04 junio, 2017

      error de part5. tendra q descargar todas las partes de nuevo, Disculpas , Saludos

  • cifrid - 03 junio, 2017

    Hola, no anda los link de mega, o sea esta online, pero los pasa a mega y da error. no SE SI ES COSA MIA. Trajo los sub srt. saludos

    • zaresc - 04 junio, 2017

      Parece que se restringio mega hasta en megadowloader y solo baja un gb