×

¿Problemas para descargar con Mozilla, EDGE? Deshabilita la opción "Abrir vinculos en una pestaña nueva" tal como lo muestra ésta imagen.

John Wick Chapter 4 (2023) REMUX 4K UHD HDR Latino

386 vistas

Información de John Wick Chapter 4 (2023) REMUX 4K UHD HDR Latino

Datos de la película

  • Calidad: 4K HDR
  • Audio: Se especifica abajo de la Sinopsis
  • Subtitulos: Español Latino PGS - Ingles PGS
  • Resolución: 3840x2160p
  • Formato: MKV
  • Codec: HEVC
  • Encoder: Melkor
  • Mediainfo: Clic para Mostrar Datos Ver
  • John Wick Chapter 4 (2023) REMUX UHD HDR Latino.mkv
    Format                      : Matroska
    Format version              : Version 4
    File size                   : 67.5 GiB
    Duration                    : 2 h 49 min
    Overall bit rate mode       : Variable
    Overall bit rate            : 57.1 Mb/s
    Movie name                  : John Wick Chapter 4 (2023) CinemaniaHDD.Net
    Encoded date                : UTC 2023-06-07 08:36:26
    Writing application         : mkvmerge v56.1.0 ('My Friend') 64-bit
    Writing library             : libebml v1.4.2 + libmatroska v1.6.4
    Attachments                 : CINEMANIAHD.png
    Site                        : CinemaniaHDD.Net
    Uploader                    : Melkor

    Video
    ID                          : 1
    ID in the original source m : 4113 (0x1011)
    Format                      : HEVC
    Format/Info                 : High Efficiency Video Coding
    Format profile              : Main 10@L5.1@High
    HDR format                  : SMPTE ST 2086, HDR10 compatible
    Codec ID                    : V_MPEGH/ISO/HEVC
    Duration                    : 2 h 49 min
    Bit rate                    : 50.9 Mb/s
    Width                       : 3 840 pixels
    Height                      : 2 160 pixels
    Display aspect ratio        : 16:9
    Frame rate mode             : Constant
    Frame rate                  : 23.976 (24000/1001) FPS
    Color space                 : YUV
    Chroma subsampling          : 4:2:0 (Type 2)
    Bit depth                   : 10 bits
    Bits/(Pixel*Frame)          : 0.256
    Stream size                 : 60.2 GiB (89%)
    Title                       : REMUX 2160p HDR [Bluray]
    Default                     : Yes
    Forced                      : Yes
    Color range                 : Limited
    Color primaries             : BT.2020
    Transfer characteristics    : PQ
    Matrix coefficients         : BT.2020 non-constant
    Mastering display color pri : Display P3
    Mastering display luminance : min: 0.0001 cd/m2, max: 1000 cd/m2
    Maximum Content Light Level : 1000 cd/m2
    Maximum Frame-Average Light : 629 cd/m2
    Original source medium      : Blu-ray

    Audio #1
    ID                          : 2
    Format                      : E-AC-3
    Format/Info                 : Enhanced AC-3
    Commercial name             : Dolby Digital Plus
    Codec ID                    : A_EAC3
    Duration                    : 2 h 49 min
    Bit rate mode               : Constant
    Bit rate                    : 640 kb/s
    Channel(s)                  : 6 channels
    Channel layout              : L R C LFE Ls Rs
    Sampling rate               : 48.0 kHz
    Frame rate                  : 31.250 FPS (1536 SPF)
    Compression mode            : Lossy
    Stream size                 : 775 MiB (1%)
    Title                       : Español Latino DDP [CinemaniaHDD]
    Language                    : Spanish
    Service kind                : Complete Main
    Default                     : No
    Forced                      : No

    Audio #2
    ID                          : 3
    ID in the original source m : 4352 (0x1100)
    Format                      : MLP FBA 16-ch
    Format/Info                 : Meridian Lossless Packing FBA with 16-channel presentation
    Commercial name             : Dolby TrueHD with Dolby Atmos
    Codec ID                    : A_TRUEHD
    Duration                    : 2 h 49 min
    Bit rate mode               : Variable
    Bit rate                    : 4 165 kb/s
    Maximum bit rate            : 7 863 kb/s
    Channel(s)                  : 8 channels
    Channel layout              : L R C LFE Ls Rs Lb Rb
    Sampling rate               : 48.0 kHz
    Frame rate                  : 1 200.000 FPS (40 SPF)
    Compression mode            : Lossless
    Stream size                 : 4.92 GiB (7%)
    Title                       : Ingles [CinemaniaHDD]
    Language                    : English
    Default                     : No
    Forced                      : No
    Original source medium      : Blu-ray
    Number of dynamic objects   : 11
    Bed channel count           : 1 channel
    Bed channel configuration   : LFE

    Audio #3
    ID                          : 4
    ID in the original source m : 4354 (0x1102)
    Format                      : AC-3
    Format/Info                 : Audio Coding 3
    Commercial name             : Dolby Digital
    Codec ID                    : A_AC3
    Duration                    : 2 h 49 min
    Bit rate mode               : Constant
    Bit rate                    : 640 kb/s
    Channel(s)                  : 6 channels
    Channel layout              : L R C LFE Ls Rs
    Sampling rate               : 48.0 kHz
    Frame rate                  : 31.250 FPS (1536 SPF)
    Compression mode            : Lossy
    Stream size                 : 775 MiB (1%)
    Title                       : Español Latino AC3 [CinemaniaHDD]
    Language                    : Spanish
    Service kind                : Complete Main
    Default                     : Yes
    Forced                      : Yes
    Original source medium      : Blu-ray

    Audio #4
    ID                          : 5
    ID in the original source m : 4352 (0x1100)
    Format                      : AC-3
    Format/Info                 : Audio Coding 3
    Commercial name             : Dolby Digital
    Codec ID                    : A_AC3
    Duration                    : 2 h 49 min
    Bit rate mode               : Constant
    Bit rate                    : 640 kb/s
    Channel(s)                  : 6 channels
    Channel layout              : L R C LFE Ls Rs
    Sampling rate               : 48.0 kHz
    Frame rate                  : 31.250 FPS (1536 SPF)
    Compression mode            : Lossy
    Stream size                 : 775 MiB (1%)
    Title                       : Ingles AC3 [CinemaniaHDD]
    Language                    : English
    Service kind                : Complete Main
    Default                     : No
    Forced                      : No
    Original source medium      : Blu-ray

    Text #1
    ID                          : 6
    ID in the original source m : 4770 (0x12A2)
    Format                      : PGS
    Muxing mode                 : zlib
    Codec ID                    : S_HDMV/PGS
    Codec ID/Info               : Picture based subtitle format used on BDs/HD-DVDs
    Duration                    : 2 h 37 min
    Bit rate                    : 16.0 kb/s
    Count of elements           : 2112
    Stream size                 : 18.0 MiB (0%)
    Title                       : Sub_Esp [PGS]
    Language                    : Spanish
    Default                     : No
    Forced                      : No
    Original source medium      : Blu-ray

    Text #2
    ID                          : 7
    ID in the original source m : 4768 (0x12A0)
    Format                      : PGS
    Muxing mode                 : zlib
    Codec ID                    : S_HDMV/PGS
    Codec ID/Info               : Picture based subtitle format used on BDs/HD-DVDs
    Duration                    : 2 h 37 min
    Bit rate                    : 15.0 kb/s
    Count of elements           : 1924
    Stream size                 : 16.8 MiB (0%)
    Title                       : Sub_Eng [PGS]
    Language                    : English
    Default                     : No
    Forced                      : No
    Original source medium      : Blu-ray

    Text #3
    ID                          : 8
    Format                      : UTF-8
    Codec ID                    : S_TEXT/UTF8
    Codec ID/Info               : UTF-8 Plain Text
    Duration                    : 2 h 24 min
    Bit rate                    : 1 b/s
    Count of elements           : 59
    Stream size                 : 1.48 KiB (0%)
    Title                       : Sub_Forzados
    Language                    : Spanish
    Default                     : Yes
    Forced                      : Yes

    Text #4
    ID                          : 9
    Format                      : UTF-8
    Codec ID                    : S_TEXT/UTF8
    Codec ID/Info               : UTF-8 Plain Text
    Duration                    : 2 h 37 min
    Bit rate                    : 23 b/s
    Count of elements           : 982
    Stream size                 : 26.5 KiB (0%)
    Title                       : Sub_Esp
    Language                    : Spanish
    Default                     : No
    Forced                      : No

    Menu
    00:00:00.000                : Chapter 01
    00:14:45.259                : Chapter 02
    00:25:42.249                : Chapter 03
    00:38:32.560                : Chapter 04
    00:55:11.558                : Chapter 05
    01:06:41.914                : Chapter 06
    01:13:14.223                : Chapter 07
    01:22:05.170                : Chapter 08
    01:29:01.544                : Chapter 09
    01:36:19.690                : Chapter 10
    01:42:06.453                : Chapter 11
    01:48:22.496                : Chapter 12
    01:55:12.196                : Chapter 13
    02:04:14.530                : Chapter 14
    02:12:57.844                : Chapter 15
    02:22:38.424                : Chapter 16

  • Peso: 67.5 GiB

Sinopsis

Descargar John Wick Chapter 4 (2023) REMUX 4K UHD HDR Latino. John Wick descubre un camino para derrotar a la Alta Mesa. Pero para poder ganar su libertad, Wick deberá enfrentarse a un nuevo rival con poderosas alianzas en todo el mundo, capaz de convertir a viejos amigos en enemigos.

Español Latino EAC3 5.1 Web & AC3 5.1 BD – Ingles THD 7.1 & Core AC3 5.1 BD

Disponible Solo Para VIP!!!

Ficha técnica

Video trailer de la película

Enlaces de descarga

Rip de Bluray

Descargar John Wick Chapter 4 (2023) REMUX 4K UHD HDR Latino


Aportes de DPeliculasHDmega la pass es:dpeliculashdmega.org Aportes de CinemaniaHD la pass es:cinemaniahdd.com Aportes recientes:cinemaniahdd.net
Guardado en : 4K HDR , 4K UHD , Action , Crime , Remux , Thriller

Películas relacionadas

  • iZombie (2016) Temporada 02 REMUX 1080p Latino

    iZombie (2016) Temporada 02 REMUX 1080p Latino

    2015
    iZombie (2016) Temporada 02 REMUX 1080p Latino

    0h 42m 2015

    Descargar iZombie (2016) Temporada 02 REMUX 1080p Latino. Gira en torno a una estudiante de medicina...

    Director: Rob Thomas

    Género: Crimen

    Actores: Rose McIver

  • iZombie (2015) Temporada 01 REMUX 1080p Latino

    iZombie (2015) Temporada 01 REMUX 1080p Latino

    2015
    iZombie (2015) Temporada 01 REMUX 1080p Latino

    0h 42m 2015

    Descargar iZombie (2015) Temporada 01 REMUX 1080p Latino. Gira en torno a una estudiante de medicina...

    Director: Rob Thomas

    Género: Crimen

    Actores: Rose McIver

  • Good Burger 2 (2023) REMUX 1080p Latino

    Good Burger 2 (2023) REMUX 1080p Latino

    2023
    Good Burger 2 (2023) REMUX 1080p Latino

    1h 31m 2023

    Descargar Good Burger 2 (2023) REMUX 1080p Latino. Después de que su último invento falla, Ed le da...

    Director: Ross Novie

    Género: Comedia

    Actores: Zoe Saldana

  • Shōgun (2024)  Temporada 1 WEB-DL 4K UHD HDR Latino

    Shōgun (2024) Temporada 1 WEB-DL 4K UHD HDR Latino

    2024
    Shōgun (2024) Temporada 1 WEB-DL 4K UHD HDR Latino

    0h 0m 2024

    Descargar Shōgun (2024) Temporada 1 WEB-DL 4K UHD HDR Latino. En el Japón del siglo XVII, el náufrago...

    Director: Rachel Kondo

    Género: 4K HDR

    Actores: Tommy Bastow

descargar John Wick Chapter 4 (2023) REMUX 4K UHD HDR Latino 4K HDR 1080p gratis, John Wick Chapter 4 (2023) REMUX 4K UHD HDR Latino 4K HDR mega 1 link, John Wick Chapter 4 (2023) REMUX 4K UHD HDR Latino 4K HDR pelicula completa, descargar John Wick Chapter 4 (2023) REMUX 4K UHD HDR Latino 4K HDR gratis en mega.

John Wick Chapter 4 (2023) REMUX 4K UHD HDR Latino pelicula full hd, John Wick Chapter 4 (2023) REMUX 4K UHD HDR Latino mega latino, John Wick Chapter 4 (2023) REMUX 4K UHD HDR Latino 4k latino, John Wick Chapter 4 (2023) REMUX 4K UHD HDR Latino pelicula completa, John Wick Chapter 4 (2023) REMUX 4K UHD HDR Latino descargar gratis, descargar John Wick Chapter 4 (2023) REMUX 4K UHD HDR Latino pelicula latino, John Wick Chapter 4 (2023) REMUX 4K UHD HDR Latino 1 link mega, John Wick Chapter 4 (2023) REMUX 4K UHD HDR Latino 1 link google drive, John Wick Chapter 4 (2023) REMUX 4K UHD HDR Latino hd 1080p latino.
Comentarios 0