×

¿Problemas para descargar con Mozilla, EDGE? Deshabilita la opción "Abrir vinculos en una pestaña nueva" tal como lo muestra ésta imagen.

John Carter: Entre dos mundos (2012) Full HD 1080p Latino

3.048 vistas

Información de John Carter: Entre dos mundos (2012) Full HD 1080p Latino

Datos de la película

  • Calidad: Full 1080p
  • Audio: Español Latino AC3 5.1 BLURAY - Ingles DTS 5.1 BLURAY
  • Subtitulos: Español Latino PGS - Ingles PGS
  • Resolución: 1920x1080p
  • Formato: MKV
  • Codec: H.264
  • Encoder: Dracarys
  • Mediainfo: Clic para Mostrar Datos Ver
  • John Carter Entre dos mundos (2012) Full HD 1080p Latino-CMHDD.mkv
    Format                      : Matroska
    Format version              : Version 4
    File size                   : 7.78 GiB
    Duration                    : 2 h 12 min
    Overall bit rate            : 8 437 kb/s
    Movie name                  : John Carter (2012) CinemaniaHDD.Net
    Encoded date                : UTC 2023-03-22 22:05:09
    Writing application         : mkvmerge v56.1.0 ('My Friend') 64-bit
    Writing library             : libebml v1.4.2 + libmatroska v1.6.4
    Attachments                 : CINEMANIAHD.png

    Video
    ID                          : 1
    Format                      : AVC
    Format/Info                 : Advanced Video Codec
    Format profile              : High@L4.1
    Format settings             : CABAC / 4 Ref Frames
    Format settings, CABAC      : Yes
    Format settings, Reference  : 4 frames
    Codec ID                    : V_MPEG4/ISO/AVC
    Duration                    : 2 h 12 min
    Bit rate                    : 6 270 kb/s
    Width                       : 1 920 pixels
    Height                      : 1 080 pixels
    Display aspect ratio        : 16:9
    Frame rate mode             : Constant
    Frame rate                  : 23.976 (24000/1001) FPS
    Color space                 : YUV
    Chroma subsampling          : 4:2:0
    Bit depth                   : 8 bits
    Scan type                   : Progressive
    Bits/(Pixel*Frame)          : 0.126
    Stream size                 : 5.78 GiB (74%)
    Title                       : Full HD1080p [CinemaniaHDD]
    Writing library             : x264 core 148 r2708 86b7198
    Encoding settings           : cabac=1 / ref=4 / deblock=1:0:0 / analyse=0x3:0x133 / me=esa / subme=10 / psy=1 / psy_rd=1.00:0.00 / mixed_ref=1 / me_range=24 / chroma_me=1 / trellis=2 / 8x8dct=1 / cqm=0 / deadzone=21,11 / fast_pskip=1 / chroma_qp_offset=-2 / threads=34 / lookahead_threads=5 / sliced_threads=0 / nr=0 / decimate=1 / interlaced=0 / bluray_compat=0 / constrained_intra=0 / bframes=8 / b_pyramid=2 / b_adapt=2 / b_bias=0 / direct=3 / weightb=1 / open_gop=0 / weightp=2 / keyint=240 / keyint_min=24 / scenecut=40 / intra_refresh=0 / rc_lookahead=60 / rc=crf / mbtree=1 / crf=20.0 / qcomp=0.60 / qpmin=0 / qpmax=69 / qpstep=4 / vbv_maxrate=62500 / vbv_bufsize=78125 / crf_max=0.0 / nal_hrd=none / filler=0 / ip_ratio=1.40 / aq=1:1.00
    Language                    : English
    Default                     : Yes
    Forced                      : Yes
    Color range                 : Limited
    Color primaries             : BT.709
    Transfer characteristics    : BT.709
    Matrix coefficients         : BT.709

    Audio #1
    ID                          : 2
    Format                      : AC-3
    Format/Info                 : Audio Coding 3
    Commercial name             : Dolby Digital
    Codec ID                    : A_AC3
    Duration                    : 2 h 12 min
    Bit rate mode               : Constant
    Bit rate                    : 640 kb/s
    Channel(s)                  : 6 channels
    Channel layout              : L R C LFE Ls Rs
    Sampling rate               : 48.0 kHz
    Frame rate                  : 31.250 FPS (1536 SPF)
    Compression mode            : Lossy
    Stream size                 : 604 MiB (8%)
    Title                       : Español Latino [CinemaniaHDD]
    Language                    : Spanish
    Service kind                : Complete Main
    Default                     : Yes
    Forced                      : Yes

    Audio #2
    ID                          : 3
    Format                      : DTS
    Format/Info                 : Digital Theater Systems
    Codec ID                    : A_DTS
    Duration                    : 2 h 12 min
    Bit rate mode               : Constant
    Bit rate                    : 1 509 kb/s
    Channel(s)                  : 6 channels
    Channel layout              : C L R Ls Rs LFE
    Sampling rate               : 48.0 kHz
    Frame rate                  : 93.750 FPS (512 SPF)
    Bit depth                   : 24 bits
    Compression mode            : Lossy
    Stream size                 : 1.39 GiB (18%)
    Title                       : Ingles [CinemaniaHDD
    Language                    : English
    Default                     : No
    Forced                      : No

    Text #1
    ID                          : 4
    Format                      : PGS
    Muxing mode                 : zlib
    Codec ID                    : S_HDMV/PGS
    Codec ID/Info               : Picture based subtitle format used on BDs/HD-DVDs
    Duration                    : 2 h 1 min
    Bit rate                    : 1 291 b/s
    Count of elements           : 128
    Stream size                 : 1.12 MiB (0%)
    Title                       : Forzados-PGS [CinemaniaHDD]
    Language                    : Spanish
    Default                     : No
    Forced                      : No

    Text #2
    ID                          : 5
    Format                      : PGS
    Muxing mode                 : zlib
    Codec ID                    : S_HDMV/PGS
    Codec ID/Info               : Picture based subtitle format used on BDs/HD-DVDs
    Duration                    : 2 h 4 min
    Bit rate                    : 22.1 kb/s
    Count of elements           : 2096
    Stream size                 : 19.8 MiB (0%)
    Title                       : Español-PGS [CinemaniaHDD]
    Language                    : Spanish
    Default                     : No
    Forced                      : No

    Text #3
    ID                          : 6
    Format                      : PGS
    Muxing mode                 : zlib
    Codec ID                    : S_HDMV/PGS
    Codec ID/Info               : Picture based subtitle format used on BDs/HD-DVDs
    Duration                    : 2 h 2 min
    Bit rate                    : 27.3 kb/s
    Count of elements           : 2969
    Stream size                 : 23.9 MiB (0%)
    Title                       : Ingles [CinemaniaHDD]
    Language                    : English
    Default                     : No
    Forced                      : No

    Text #4
    ID                          : 7
    Format                      : UTF-8
    Codec ID                    : S_TEXT/UTF8
    Codec ID/Info               : UTF-8 Plain Text
    Duration                    : 2 h 1 min
    Bit rate                    : 1 b/s
    Count of elements           : 64
    Stream size                 : 1.36 KiB (0%)
    Title                       : Forzados-SRT [CinemaniaHDD]
    Language                    : Spanish
    Default                     : Yes
    Forced                      : Yes

    Text #5
    ID                          : 8
    Format                      : UTF-8
    Codec ID                    : S_TEXT/UTF8
    Codec ID/Info               : UTF-8 Plain Text
    Duration                    : 2 h 4 min
    Bit rate                    : 37 b/s
    Count of elements           : 1046
    Stream size                 : 33.8 KiB (0%)
    Title                       : Español-SRT [CinemaniaHDD]
    Language                    : Spanish
    Default                     : No
    Forced                      : No

    Menu
    00:00:00.000                : 00:00:00.000
    00:04:01.241                : 00:04:01.241
    00:10:22.914                : 00:10:22.914
    00:20:08.791                : 00:20:08.791
    00:27:05.207                : 00:27:05.207
    00:37:29.164                : 00:37:29.164
    00:47:43.569                : 00:47:43.569
    00:58:51.653                : 00:58:51.653
    01:07:42.433                : 01:07:42.433
    01:15:01.038                : 01:15:01.038
    01:22:34.199                : 01:22:34.199
    01:30:29.799                : 01:30:29.799
    01:37:02.066                : 01:37:02.066
    01:46:52.031                : 01:46:52.031
    01:53:48.989                : 01:53:48.989
    02:02:54.534                : 02:02:54.534

  • Peso: 7.78 GiB

Sinopsis

Descargar John Carter: Entre dos mundos (2012) Full HD 1080p Latino. Adaptación de ‘Una princesa de Marte’, la primera novela fantástica de Edgar Rice Burroughs. La película lleva a la gran pantalla una aventura épica que se desarrolla en el devastado planeta Marte, un mundo habitado por tribus guerreras y seres salvajes. John Carter es un veterano de la Guerra Civil norteamericana (1861-1865) que se halla en el planeta Marte, se ve inmerso en una nueva y misteriosa guerra con un extraño ejército de marcianos, entre los que se encuentran Tars Tarkas y la princesa Dejah Thoris.

RESUBIDO!!!

Ficha técnica

Video trailer de la película

Enlaces de descarga

Rip de Bluray

Descargar John Carter: Entre dos mundos (2012) Full HD 1080p Latino




Aportes de DPeliculasHDmega la pass es:dpeliculashdmega.org Aportes de CinemaniaHD la pass es:cinemaniahdd.com Aportes recientes:cinemaniahdd.net

Películas relacionadas

  • Resistencia (2023) HD 1080p Latino

    Resistencia (2023) HD 1080p Latino

    2023
    Resistencia (2023) HD 1080p Latino

    2h 14m 2023

    Descargar Resistencia (2023) HD 1080p Latino. En medio de una guerra futura entre la raza humana y las...

    Director: Vicki Howe

    Género: Acción

    Actores: Veronica Ngo

  • Resistencia (2023) PLACEBO Full HD 1080p Latino

    Resistencia (2023) PLACEBO Full HD 1080p Latino

    2023
    Resistencia (2023) PLACEBO Full HD 1080p Latino

    2h 14m 2023

    Descargar Resistencia (2023) PLACEBO Full HD 1080p Latino. En medio de una guerra futura entre la raza...

    Director: Vicki Howe

    Género: Acción

    Actores: Veronica Ngo

  • Resistencia (2023) REMUX 1080p Latino

    Resistencia (2023) REMUX 1080p Latino

    2023
    Resistencia (2023) REMUX 1080p Latino

    2h 14m 2023

    Descargar Resistencia (2023) REMUX 1080p Latino. En medio de una guerra futura entre la raza humana y...

    Director: Vicki Howe

    Género: Acción

    Actores: Veronica Ngo

  • Merry Little Batman (2023) AMZN WEB-DL 1080p Latino

    Merry Little Batman (2023) AMZN WEB-DL 1080p Latino

    2023
    Merry Little Batman (2023) AMZN WEB-DL 1080p Latino

    1h 32m 2023

    Esta Navidad, Damian Wayne quiere ser un superhéroe como su papá, el único e inigualable Batman. Cuando...

    Director: Mike Roth

    Género: Acción

    Actores: Yonas Kibreab

descargar John Carter: Entre dos mundos (2012) Full HD 1080p Latino Full 1080p 1080p gratis, John Carter: Entre dos mundos (2012) Full HD 1080p Latino Full 1080p mega 1 link, John Carter: Entre dos mundos (2012) Full HD 1080p Latino Full 1080p pelicula completa, descargar John Carter: Entre dos mundos (2012) Full HD 1080p Latino Full 1080p gratis en mega.

John Carter: Entre dos mundos (2012) Full HD 1080p Latino pelicula full hd, John Carter: Entre dos mundos (2012) Full HD 1080p Latino mega latino, John Carter: Entre dos mundos (2012) Full HD 1080p Latino 4k latino, John Carter: Entre dos mundos (2012) Full HD 1080p Latino pelicula completa, John Carter: Entre dos mundos (2012) Full HD 1080p Latino descargar gratis, descargar John Carter: Entre dos mundos (2012) Full HD 1080p Latino pelicula latino, John Carter: Entre dos mundos (2012) Full HD 1080p Latino 1 link mega, John Carter: Entre dos mundos (2012) Full HD 1080p Latino 1 link google drive, John Carter: Entre dos mundos (2012) Full HD 1080p Latino hd 1080p latino.
Comentarios 1