×

¿Problemas para descargar con Mozilla, EDGE? Deshabilita la opción "Abrir vinculos en una pestaña nueva" tal como lo muestra ésta imagen.

John Adams (TV Mini-Series 2008) REMUX 1080p Latino – CMHDD

329 vistas

Información de John Adams (TV Mini-Series 2008) REMUX 1080p Latino – CMHDD

Datos de la película

  • Calidad: Full 1080p
  • Audio: Español Latino DTS 2.0 BLURAY - Ingles DTS 5.1 BLURAY
  • Subtitulos: Español Latino SRT
  • Resolución: 1920x1080p
  • Formato: MKV
  • Codec: H.264
  • Encoder: Dracarys
  • Mediainfo: Clic para Mostrar Datos Ver
  • Format                      : Matroska
    Format version              : Version 4
    File size                   : 14.1 GiB
    Duration                    : 1 h 10 min
    Overall bit rate mode       : Variable
    Overall bit rate            : 28.5 Mb/s
    Movie name                  : John Adams (TV Mini-Series 2008) [E01] REMUX 1080p Latino - CMHDD
    Encoded date                : UTC 2020-10-03 02:50:34
    Writing application         : mkvmerge v46.0.0 ('No Deeper Escape') 64-bit
    Writing library             : libebml v1.3.10 + libmatroska v1.5.2

    Video
    ID                          : 1
    Format                      : VC-1
    Format profile              : Advanced@L3
    Codec ID                    : V_MS/VFW/FOURCC / WVC1
    Codec ID/Hint               : Microsoft
    Duration                    : 1 h 10 min
    Bit rate                    : 26.3 Mb/s
    Width                       : 1 920 pixels
    Height                      : 1 080 pixels
    Display aspect ratio        : 16:9
    Frame rate mode             : Constant
    Frame rate                  : 23.976 (24000/1001) FPS
    Color space                 : YUV
    Chroma subsampling          : 4:2:0
    Bit depth                   : 8 bits
    Scan type                   : Progressive
    Compression mode            : Lossy
    Bits/(Pixel*Frame)          : 0.529
    Stream size                 : 13.0 GiB (92%)
    Default                     : Yes
    Forced                      : No

    Audio #1
    ID                          : 2
    Format                      : DTS
    Format/Info                 : Digital Theater Systems
    Codec ID                    : A_DTS
    Duration                    : 1 h 10 min
    Bit rate mode               : Constant
    Bit rate                    : 318 kb/s
    Channel(s)                  : 2 channels
    Channel layout              : L R
    Sampling rate               : 48.0 kHz
    Frame rate                  : 93.750 FPS (512 SPF)
    Bit depth                   : 16 bits
    Compression mode            : Lossy
    Stream size                 : 161 MiB (1%)
    Language                    : Spanish
    Default                     : Yes
    Forced                      : No

    Audio #2
    ID                          : 3
    Format                      : DTS XLL
    Format/Info                 : Digital Theater Systems
    Commercial name             : DTS-HD Master Audio
    Codec ID                    : A_DTS
    Duration                    : 1 h 10 min
    Bit rate mode               : Variable
    Bit rate                    : 1 851 kb/s
    Channel(s)                  : 6 channels
    Channel layout              : C L R Ls Rs LFE
    Sampling rate               : 48.0 kHz
    Frame rate                  : 93.750 FPS (512 SPF)
    Bit depth                   : 16 bits
    Compression mode            : Lossless
    Stream size                 : 937 MiB (6%)
    Language                    : English
    Default                     : No
    Forced                      : No

    Text #1
    ID                          : 4
    Format                      : PGS
    Muxing mode                 : zlib
    Codec ID                    : S_HDMV/PGS
    Codec ID/Info               : Picture based subtitle format used on BDs/HD-DVDs
    Duration                    : 1 h 6 min
    Bit rate                    : 41.4 kb/s
    Count of elements           : 1758
    Stream size                 : 19.6 MiB (0%)
    Language                    : Spanish
    Default                     : No
    Forced                      : No

    Text #2
    ID                          : 5
    Format                      : UTF-8
    Codec ID                    : S_TEXT/UTF8
    Codec ID/Info               : UTF-8 Plain Text
    Duration                    : 1 h 6 min
    Bit rate                    : 51 b/s
    Count of elements           : 879
    Stream size                 : 24.8 KiB (0%)
    Language                    : Spanish
    Default                     : No
    Forced                      : No

  • Peso: 96,7 GiB Total

Sinopsis

Miniserie histórica que narra la vida de John Adams, el segundo presidente de la historia de los Estados Unidos. Basada en el libro de David McCullough y dirigida por Tom Hooper.

La serie recoge los primeros cincuenta años de los Estados Unidos, y hace un repaso de la vida adulta de John Adams (Paul Giamatti, ‘El mundo según Barney’, ‘Templario’) desde su etapa como delegado por Massachusetts en el Congreso Continental hasta su papel como Presidente de los Estados Unidos de América de 1797 a 1801. ‘John Adams’ se centra tanto en la evolución política americana como en la vida personal del presidente, incluyendo los altos y bajos a los que tuvo que enfrentarse como líder de la que sería una de las naciones más poderosas del mundo.

Los primeros episodios de la serie narran la lucha de las tropas americanas, dirigidas por George Washington (David Morse, ‘Furia ciega’, ‘En tierra hostil’), por ganar la independencia de Gran Bretaña. A partir de ahí, ‘John Adams’ muestra la formación de los diferentes estados de América, la firma de la Declaración de Independencia y los problemas a los que la nueva nación tuvo que enfrentarse. Finalmente, la miniserie recrea los años de mandato presidencial del protagonista hasta su retiro final.

A lo largo de la serie aparecerán personajes fundamentales en la historia de Estados Unidos, como Benjamin Franklin (Tom Wilkinson, ‘El exótico Hotel Marigold’, ‘Misión: Imposible. Protocolo fantasma’), Thomas Jefferson (Stephen Dillane, ‘Savage grace’, ‘Juego de tronos’) o John Dickinson (Željko Ivanek, ‘Big Love’)

Ficha técnica

  • Titulo original: John Adams
  • Fecha de lanzamiento: 16-03-2008 (US)
  • Director: Kirk Ellis
  • Género: Drama

Video trailer de la película

Enlaces de descarga

Rip de Bluray

Descargar John Adams (TV Mini-Series 2008) REMUX 1080p Latino – CMHDD


Aportes de DPeliculasHDmega la pass es:dpeliculashdmega.org Aportes de CinemaniaHD la pass es:cinemaniahdd.com
Guardado en : Drama

Películas relacionadas

  • El discurso del Rey (2010) 1080p Latino

    El discurso del Rey (2010) 1080p Latino

    2010
    El discurso del Rey (2010) 1080p Latino

    1h 58m 2010

    Descargar El discurso del Rey (2010) 1080p Latino. El duque de York se convirtió en rey de Gran Bretaña...

    Director: Tom Hooper

    Género: Drama

    Actores: Tony Earnshaw

  • El discurso del Rey (2010) Full HD 1080p Latino

    El discurso del Rey (2010) Full HD 1080p Latino

    2010
    El discurso del Rey (2010) Full HD 1080p Latino

    1h 58m 2010

    Descargar El discurso del Rey (2010) Full HD 1080p Latino. El duque de York se convirtió en rey de Gran...

    Director: Tom Hooper

    Género: Drama

    Actores: Tony Earnshaw

  • El discurso del Rey (2010) REMUX 1080p Latino

    El discurso del Rey (2010) REMUX 1080p Latino

    2010
    El discurso del Rey (2010) REMUX 1080p Latino

    1h 58m 2010

    Descargar El discurso del Rey (2010) REMUX 1080p Latino. El duque de York se convirtió en rey de Gran...

    Director: Tom Hooper

    Género: Drama

    Actores: Tony Earnshaw

  • 8 Mile (2002) REMUX 4K HDR Latino – CMHDD

    8 Mile (2002) REMUX 4K HDR Latino – CMHDD

    2002
    8 Mile (2002) REMUX 4K HDR Latino – CMHDD

    1h 50m 2002

    Detroit, 1995. La promesa de potencia industrial se ha transformado en un hervidero de conflictos económicos...

    Director: Michael J. Moore

    Género: Drama

    Actores: Xzibit

descargar John Adams (TV Mini-Series 2008) REMUX 1080p Latino – CMHDD Full 1080p 1080p gratis, John Adams (TV Mini-Series 2008) REMUX 1080p Latino – CMHDD Full 1080p mega 1 link, John Adams (TV Mini-Series 2008) REMUX 1080p Latino – CMHDD Full 1080p pelicula completa, descargar John Adams (TV Mini-Series 2008) REMUX 1080p Latino – CMHDD Full 1080p gratis en mega.

John Adams (TV Mini-Series 2008) REMUX 1080p Latino – CMHDD pelicula full hd, John Adams (TV Mini-Series 2008) REMUX 1080p Latino – CMHDD mega latino, John Adams (TV Mini-Series 2008) REMUX 1080p Latino – CMHDD 4k latino, John Adams (TV Mini-Series 2008) REMUX 1080p Latino – CMHDD pelicula completa, John Adams (TV Mini-Series 2008) REMUX 1080p Latino – CMHDD descargar gratis, descargar John Adams (TV Mini-Series 2008) REMUX 1080p Latino – CMHDD pelicula latino, John Adams (TV Mini-Series 2008) REMUX 1080p Latino – CMHDD 1 link mega, John Adams (TV Mini-Series 2008) REMUX 1080p Latino – CMHDD 1 link google drive, John Adams (TV Mini-Series 2008) REMUX 1080p Latino – CMHDD hd 1080p latino.
Comentarios 0