×

¿Problemas para descargar con Mozilla, EDGE? Deshabilita la opción "Abrir vinculos en una pestaña nueva" tal como lo muestra ésta imagen.

Joe Bell (2021) REMUX 1080p Latino

148 vistas

Información de Joe Bell (2021) REMUX 1080p Latino

Datos de la película

  • Calidad: Full 1080p
  • Audio: Español Latino AC3 2.0 WEB-DL - Ingles DTS 5.1 BLURAY
  • Subtitulos: Español Latino SRT- FORZADOS SRT
  • Resolución: 1920x1080p
  • Formato: MKV
  • Codec: H.264
  • Encoder: Melkor
  • Mediainfo: Clic para Mostrar Datos Ver
  • Joe Bell (2021) REMUX 1080p Latino.mkv
    Format                      : Matroska
    Format version              : Version 4
    File size                   : 20.0 GiB
    Duration                    : 1 h 33 min
    Overall bit rate mode       : Variable
    Overall bit rate            : 30.5 Mb/s
    Movie name                  : Joe Bell (2021) CinemaniaHDD.Net
    Encoded date                : UTC 2022-04-07 07:02:32
    Writing application         : mkvmerge v56.1.0 ('My Friend') 64-bit
    Writing library             : libebml v1.4.2 + libmatroska v1.6.4
    Attachments                 : CINEMANIAHD.png

    Video
    ID                          : 1
    Format                      : AVC
    Format/Info                 : Advanced Video Codec
    Format profile              : High@L4.1
    Format settings             : CABAC / 4 Ref Frames
    Format settings, CABAC      : Yes
    Format settings, Reference  : 4 frames
    Codec ID                    : V_MPEG4/ISO/AVC
    Duration                    : 1 h 33 min
    Bit rate mode               : Variable
    Bit rate                    : 26.8 Mb/s
    Maximum bit rate            : 38.0 Mb/s
    Width                       : 1 920 pixels
    Height                      : 1 080 pixels
    Display aspect ratio        : 16:9
    Frame rate mode             : Constant
    Frame rate                  : 23.976 (24000/1001) FPS
    Color space                 : YUV
    Chroma subsampling          : 4:2:0
    Bit depth                   : 8 bits
    Scan type                   : Progressive
    Bits/(Pixel*Frame)          : 0.538
    Stream size                 : 17.5 GiB (88%)
    Title                       : REMUX HD1080p [CinemaniaHDD]
    Default                     : Yes
    Forced                      : Yes

    Audio #1
    ID                          : 2
    Format                      : AC-3
    Format/Info                 : Audio Coding 3
    Commercial name             : Dolby Digital
    Codec ID                    : A_AC3
    Duration                    : 1 h 33 min
    Bit rate mode               : Constant
    Bit rate                    : 256 kb/s
    Channel(s)                  : 2 channels
    Channel layout              : L R
    Sampling rate               : 48.0 kHz
    Frame rate                  : 31.250 FPS (1536 SPF)
    Compression mode            : Lossy
    Stream size                 : 171 MiB (1%)
    Title                       : Español Latino [CinemaniaHDD]
    Language                    : Spanish
    Service kind                : Complete Main
    Default                     : Yes
    Forced                      : Yes

    Audio #2
    ID                          : 3
    Format                      : DTS XLL
    Format/Info                 : Digital Theater Systems
    Commercial name             : DTS-HD Master Audio
    Codec ID                    : A_DTS
    Duration                    : 1 h 33 min
    Bit rate mode               : Variable
    Bit rate                    : 3 501 kb/s
    Channel(s)                  : 6 channels
    Channel layout              : C L R Ls Rs LFE
    Sampling rate               : 48.0 kHz
    Frame rate                  : 93.750 FPS (512 SPF)
    Bit depth                   : 24 bits
    Compression mode            : Lossless
    Stream size                 : 2.29 GiB (11%)
    Title                       : Ingles [CinemaniaHDD]
    Language                    : English
    Default                     : No
    Forced                      : No

    Text #1
    ID                          : 4
    Format                      : UTF-8
    Codec ID                    : S_TEXT/UTF8
    Codec ID/Info               : UTF-8 Plain Text
    Duration                    : 56 min 39 s
    Bit rate                    : 0 b/s
    Count of elements           : 13
    Stream size                 : 381 Bytes (0%)
    Title                       : Forzados-SRT [CinemaniaHDD]
    Language                    : Spanish
    Default                     : Yes
    Forced                      : Yes

    Text #2
    ID                          : 5
    Format                      : UTF-8
    Codec ID                    : S_TEXT/UTF8
    Codec ID/Info               : UTF-8 Plain Text
    Duration                    : 1 h 26 min
    Bit rate                    : 54 b/s
    Count of elements           : 1087
    Stream size                 : 34.3 KiB (0%)
    Title                       : Español-SRT [CinemaniaHDD]
    Language                    : Spanish
    Default                     : No
    Forced                      : No

    Text #3
    ID                          : 6
    Format                      : PGS
    Muxing mode                 : zlib
    Codec ID                    : S_HDMV/PGS
    Codec ID/Info               : Picture based subtitle format used on BDs/HD-DVDs
    Duration                    : 1 h 29 min
    Bit rate                    : 36.3 kb/s
    Count of elements           : 2808
    Stream size                 : 23.4 MiB (0%)
    Title                       : Ingles [CinemaniaHDD]
    Language                    : English
    Default                     : No
    Forced                      : No

    Menu
    00:00:00.000                : Chapter 01
    00:09:32.739                : Chapter 02
    00:17:12.949                : Chapter 03
    00:27:41.201                : Chapter 04
    00:35:10.525                : Chapter 05
    00:44:56.527                : Chapter 06
    00:52:31.523                : Chapter 07
    01:01:49.331                : Chapter 08
    01:10:28.891                : Chapter 09
    01:19:55.916                : Chapter 10
    01:26:03.116                : Chapter 11

  • Peso: 20.0 GiB

Sinopsis

Descargar Joe Bell (2021) REMUX 1080p Latino. La historia real de un padre de clase trabajadora de un pueblo pequeño, que se embarca en una caminata en solitario por los Estados Unidos, para hacer una cruzada contra el acoso escolar, después de que su hijo es atormentado en la escuela secundaria por ser gay.

Ficha técnica

Video trailer de la película

Enlaces de descarga

Rip de Bluray

Descargar Joe Bell (2021) REMUX 1080p Latino




Aportes de DPeliculasHDmega la pass es:dpeliculashdmega.org Aportes de CinemaniaHD la pass es:cinemaniahdd.com
Guardado en : Aventura , Drama , Remux

Películas relacionadas

descargar Joe Bell (2021) REMUX 1080p Latino Full 1080p 1080p gratis, Joe Bell (2021) REMUX 1080p Latino Full 1080p mega 1 link, Joe Bell (2021) REMUX 1080p Latino Full 1080p pelicula completa, descargar Joe Bell (2021) REMUX 1080p Latino Full 1080p gratis en mega.

Joe Bell (2021) REMUX 1080p Latino pelicula full hd, Joe Bell (2021) REMUX 1080p Latino mega latino, Joe Bell (2021) REMUX 1080p Latino 4k latino, Joe Bell (2021) REMUX 1080p Latino pelicula completa, Joe Bell (2021) REMUX 1080p Latino descargar gratis, descargar Joe Bell (2021) REMUX 1080p Latino pelicula latino, Joe Bell (2021) REMUX 1080p Latino 1 link mega, Joe Bell (2021) REMUX 1080p Latino 1 link google drive, Joe Bell (2021) REMUX 1080p Latino hd 1080p latino.
Comentarios 0