×

¿Problemas para descargar con Mozilla, EDGE? Deshabilita la opción "Abrir vinculos en una pestaña nueva" tal como lo muestra ésta imagen.

Jingle All the Way (1996) REMUX 1080p Latino – CMHDD

160 vistas

Información de Jingle All the Way (1996) REMUX 1080p Latino – CMHDD

Datos de la película

  • Calidad: Full 1080p
  • Audio: Español Latino AC3 5.1 BLURAY - Ingles DTS 5.1 BLURAY
  • Subtitulos: Español Latino PGS
  • Resolución: 1920x1080p
  • Formato: MKV
  • Codec: H.264
  • Encoder: Dracarys
  • Mediainfo: Clic para Mostrar Datos Ver
  • Format                      : Matroska
    Format version              : Version 4
    File size                   : 22.4 GiB
    Duration                    : 1 h 29 min
    Overall bit rate mode       : Variable
    Overall bit rate            : 35.8 Mb/s
    Movie name                  : Jingle All the Way (1996) REMUX 1080p Latino - CMHDD
    Encoded date                : UTC 2021-12-09 00:52:46
    Writing application         : mkvmerge v17.0.0 ('Be Ur Friend') 64-bit
    Writing library             : libebml v1.3.5 + libmatroska v1.4.8

    Video
    ID                          : 1
    Format                      : AVC
    Format/Info                 : Advanced Video Codec
    Format profile              : High@L4.1
    Format settings             : CABAC / 4 Ref Frames
    Format settings, CABAC      : Yes
    Format settings, Reference  : 4 frames
    Codec ID                    : V_MPEG4/ISO/AVC
    Duration                    : 1 h 29 min
    Bit rate mode               : Variable
    Bit rate                    : 31.0 Mb/s
    Maximum bit rate            : 32.0 Mb/s
    Width                       : 1 920 pixels
    Height                      : 1 080 pixels
    Display aspect ratio        : 16:9
    Frame rate mode             : Constant
    Frame rate                  : 23.976 (24000/1001) FPS
    Color space                 : YUV
    Chroma subsampling          : 4:2:0
    Bit depth                   : 8 bits
    Scan type                   : Progressive
    Bits/(Pixel*Frame)          : 0.623
    Stream size                 : 19.4 GiB (86%)
    Default                     : Yes
    Forced                      : No

    Audio #1
    ID                          : 2
    Format                      : DTS XLL
    Format/Info                 : Digital Theater Systems
    Commercial name             : DTS-HD Master Audio
    Codec ID                    : A_DTS
    Duration                    : 1 h 29 min
    Bit rate mode               : Variable
    Bit rate                    : 4 381 kb/s
    Channel(s)                  : 6 channels
    Channel layout              : C L R Ls Rs LFE
    Sampling rate               : 48.0 kHz
    Frame rate                  : 93.750 FPS (512 SPF)
    Bit depth                   : 24 bits
    Compression mode            : Lossless
    Stream size                 : 2.74 GiB (12%)
    Language                    : English
    Default                     : No
    Forced                      : No

    Audio #2
    ID                          : 3
    Format                      : AC-3
    Format/Info                 : Audio Coding 3
    Commercial name             : Dolby Digital
    Codec ID                    : A_AC3
    Duration                    : 1 h 29 min
    Bit rate mode               : Constant
    Bit rate                    : 448 kb/s
    Channel(s)                  : 6 channels
    Channel layout              : L R C LFE Ls Rs
    Sampling rate               : 48.0 kHz
    Frame rate                  : 31.250 FPS (1536 SPF)
    Compression mode            : Lossy
    Stream size                 : 287 MiB (1%)
    Language                    : Spanish
    Service kind                : Complete Main
    Default                     : Yes
    Forced                      : No

    Text
    ID                          : 4
    Format                      : PGS
    Muxing mode                 : zlib
    Codec ID                    : S_HDMV/PGS
    Codec ID/Info               : Picture based subtitle format used on BDs/HD-DVDs
    Duration                    : 1 h 28 min
    Bit rate                    : 27.4 kb/s
    Count of elements           : 2096
    Stream size                 : 17.4 MiB (0%)
    Language                    : Spanish
    Default                     : No
    Forced                      : No

    Menu
    00:00:00.000                : en:Chapter 1
    00:07:58.144                : en:Chapter 2
    00:13:46.242                : en:Chapter 3
    00:16:21.855                : en:Chapter 4
    00:18:36.740                : en:Chapter 5
    00:22:42.527                : en:Chapter 6
    00:24:48.862                : en:Chapter 7
    00:26:51.943                : en:Chapter 8
    00:29:14.002                : en:Chapter 9
    00:31:29.512                : en:Chapter 10
    00:37:39.298                : en:Chapter 11
    00:39:10.723                : en:Chapter 12
    00:42:15.366                : en:Chapter 13
    00:45:34.189                : en:Chapter 14
    00:53:30.624                : en:Chapter 15
    00:59:37.740                : en:Chapter 16
    01:01:56.379                : en:Chapter 17
    01:04:40.626                : en:Chapter 18
    01:09:00.302                : en:Chapter 19
    01:10:40.819                : en:Chapter 20
    01:14:15.367                : en:Chapter 21
    01:18:27.035                : en:Chapter 22
    01:21:21.501                : en:Chapter 23
    01:28:46.612                : en:Chapter 24

  • Peso: 22.4 GiB

Sinopsis

Howard Langston es un atareado hombre de negocios que llega tarde a la clase de karate de su hijo Jamie. Para que le perdone le promete que le regalará lo que le pida por navidad: Jamie le pide un muñeco Turboman. El problema es que el juguete es el más popular y está agotado en todas las jugueterías. Con sólo unas pocas horas para Navidad, Howie inicia una cómica odisea por toda la ciudad a la caza y captura del preciado objeto.

Ficha técnica

Video trailer de la película

Enlaces de descarga

Rip de Bluray

Descargar Jingle All the Way (1996) REMUX 1080p Latino – CMHDD


Aportes de DPeliculasHDmega la pass es:dpeliculashdmega.org Aportes de CinemaniaHD la pass es:cinemaniahdd.com
Guardado en : Aventura , Comedia , Familia

Películas relacionadas

  • Un mundo extraño (2022) HD 1080p Latino

    Un mundo extraño (2022) HD 1080p Latino

    2022
    Un mundo extraño (2022) HD 1080p Latino

    1h 42m 2022

    Descargar Un mundo extraño (2022) HD 1080p Latino. Los Clades son una familia conocida en todo el mundo,...

    Director: Thai Bettistea

    Género: Animación

    Actores: Reed Buck

  • Un mundo extraño (2022) REMUX 1080p Latino

    Un mundo extraño (2022) REMUX 1080p Latino

    2022
    Un mundo extraño (2022) REMUX 1080p Latino

    1h 42m 2022

    Descargar Un mundo extraño (2022) REMUX 1080p. Un viaje a una tierra inexplorada y traicionera en la...

    Director: Thai Bettistea

    Género: Animación

    Actores: Reed Buck

  • Espiritu Libre (2023) NF WEB-DL 1080p Latino

    Espiritu Libre (2023) NF WEB-DL 1080p Latino

    2023
    Espiritu Libre (2023) NF WEB-DL 1080p Latino

    1h 49m 2023

    Descargar Espiritu Libre (2023) NF WEB-DL 1080p Latino. La película se basa en la increíble historia...

    Director: Sarah Spillane

    Género: Aventura

    Actores: Vivien Turner

descargar Jingle All the Way (1996) REMUX 1080p Latino – CMHDD Full 1080p 1080p gratis, Jingle All the Way (1996) REMUX 1080p Latino – CMHDD Full 1080p mega 1 link, Jingle All the Way (1996) REMUX 1080p Latino – CMHDD Full 1080p pelicula completa, descargar Jingle All the Way (1996) REMUX 1080p Latino – CMHDD Full 1080p gratis en mega.

Jingle All the Way (1996) REMUX 1080p Latino – CMHDD pelicula full hd, Jingle All the Way (1996) REMUX 1080p Latino – CMHDD mega latino, Jingle All the Way (1996) REMUX 1080p Latino – CMHDD 4k latino, Jingle All the Way (1996) REMUX 1080p Latino – CMHDD pelicula completa, Jingle All the Way (1996) REMUX 1080p Latino – CMHDD descargar gratis, descargar Jingle All the Way (1996) REMUX 1080p Latino – CMHDD pelicula latino, Jingle All the Way (1996) REMUX 1080p Latino – CMHDD 1 link mega, Jingle All the Way (1996) REMUX 1080p Latino – CMHDD 1 link google drive, Jingle All the Way (1996) REMUX 1080p Latino – CMHDD hd 1080p latino.
Comentarios 0