×

¿Problemas para descargar con Mozilla, EDGE? Deshabilita la opción "Abrir vinculos en una pestaña nueva" tal como lo muestra ésta imagen.

JigSaw (2017) Full HD 1080p Latino

3.753 vistas

Información de JigSaw (2017) Full HD 1080p Latino

Datos de la película

  • Calidad: Full 1080p
  • Audio: Español Latino AC3 5.1 BLURAY - Ingles DTS 5.1 BLURAY
  • Subtitulos: Español Latino PGS - Ingles PGS
  • Resolución: 1920X1080p
  • Formato: MKV
  • Codec: H.264
  • Encoder: CinefiloCool
  • Mediainfo: Clic para Mostrar Datos Ver
  • Jigsaw (2017) Full HD 1080p Latino-CMHDD.mkv
    Format                      : Matroska
    Format version              : Version 4
    File size                   : 4.14 GiB
    Duration                    : 1 h 31 min
    Overall bit rate            : 6 448 kb/s
    Movie name                  : Jigsaw (2017) CinemaniaHDD.Net
    Encoded date                : UTC 2023-04-14 15:59:16
    Writing application         : mkvmerge v56.1.0 ('My Friend') 64-bit
    Writing library             : libebml v1.4.2 + libmatroska v1.6.4
    Attachments                 : CINEMANIAHD.png

    Video
    ID                          : 1
    Format                      : AVC
    Format/Info                 : Advanced Video Codec
    Format profile              : High@L4.1
    Format settings             : CABAC / 4 Ref Frames
    Format settings, CABAC      : Yes
    Format settings, Reference  : 4 frames
    Codec ID                    : V_MPEG4/ISO/AVC
    Duration                    : 1 h 31 min
    Bit rate                    : 4 259 kb/s
    Width                       : 1 920 pixels
    Height                      : 1 080 pixels
    Display aspect ratio        : 16:9
    Frame rate mode             : Constant
    Frame rate                  : 23.976 (24000/1001) FPS
    Color space                 : YUV
    Chroma subsampling          : 4:2:0
    Bit depth                   : 8 bits
    Scan type                   : Progressive
    Bits/(Pixel*Frame)          : 0.086
    Stream size                 : 2.74 GiB (66%)
    Title                       : Full HD1080p [CinemaniaHDD]
    Writing library             : x264 core 163 r3059 b684ebe0
    Encoding settings           : cabac=1 / ref=4 / deblock=1:0:0 / analyse=0x3:0x133 / me=tesa / subme=11 / psy=1 / psy_rd=1.00:0.00 / mixed_ref=1 / me_range=24 / chroma_me=1 / trellis=2 / 8x8dct=1 / cqm=0 / deadzone=21,11 / fast_pskip=0 / chroma_qp_offset=-2 / threads=24 / lookahead_threads=6 / sliced_threads=0 / nr=0 / decimate=1 / interlaced=0 / bluray_compat=0 / constrained_intra=0 / bframes=16 / b_pyramid=2 / b_adapt=2 / b_bias=0 / direct=3 / weightb=1 / open_gop=0 / weightp=2 / keyint=240 / keyint_min=24 / scenecut=40 / intra_refresh=0 / rc_lookahead=60 / rc=crf / mbtree=1 / crf=18.5 / qcomp=0.60 / qpmin=0 / qpmax=69 / qpstep=4 / vbv_maxrate=62500 / vbv_bufsize=78125 / crf_max=0.0 / nal_hrd=none / filler=0 / ip_ratio=1.40 / aq=1:1.00
    Default                     : Yes
    Forced                      : Yes
    Color range                 : Limited
    Color primaries             : BT.709
    Transfer characteristics    : BT.709
    Matrix coefficients         : BT.709

    Audio #1
    ID                          : 2
    Format                      : AC-3
    Format/Info                 : Audio Coding 3
    Commercial name             : Dolby Digital
    Codec ID                    : A_AC3
    Duration                    : 1 h 31 min
    Bit rate mode               : Constant
    Bit rate                    : 640 kb/s
    Channel(s)                  : 6 channels
    Channel layout              : L R C LFE Ls Rs
    Sampling rate               : 48.0 kHz
    Frame rate                  : 31.250 FPS (1536 SPF)
    Compression mode            : Lossy
    Delay relative to video     : 30 ms
    Stream size                 : 421 MiB (10%)
    Title                       : Español Latino [CinemaniaHDD]
    Language                    : Spanish
    Service kind                : Complete Main
    Default                     : Yes
    Forced                      : No

    Audio #2
    ID                          : 3
    Format                      : DTS
    Format/Info                 : Digital Theater Systems
    Codec ID                    : A_DTS
    Duration                    : 1 h 31 min
    Bit rate mode               : Constant
    Bit rate                    : 1 509 kb/s
    Channel(s)                  : 6 channels
    Channel layout              : C L R Ls Rs LFE
    Sampling rate               : 48.0 kHz
    Frame rate                  : 93.750 FPS (512 SPF)
    Bit depth                   : 16 bits
    Compression mode            : Lossy
    Stream size                 : 992 MiB (23%)
    Title                       : Ingles [CinemaniaHDD]
    Language                    : English
    Default                     : No
    Forced                      : No

    Text #1
    ID                          : 4
    Format                      : PGS
    Muxing mode                 : zlib
    Codec ID                    : S_HDMV/PGS
    Codec ID/Info               : Picture based subtitle format used on BDs/HD-DVDs
    Duration                    : 1 h 24 min
    Bit rate                    : 35.6 kb/s
    Count of elements           : 2047
    Stream size                 : 21.4 MiB (1%)
    Title                       : Español-PGS [CinemaniaHDD]
    Language                    : Spanish
    Default                     : No
    Forced                      : No

    Text #2
    ID                          : 5
    Format                      : PGS
    Muxing mode                 : zlib
    Codec ID                    : S_HDMV/PGS
    Codec ID/Info               : Picture based subtitle format used on BDs/HD-DVDs
    Duration                    : 1 h 31 min
    Bit rate                    : 40.9 kb/s
    Count of elements           : 2702
    Stream size                 : 26.7 MiB (1%)
    Title                       : Ingles-PGS [CinemaniaHDD]
    Language                    : English
    Default                     : No
    Forced                      : No

    Text #3
    ID                          : 6
    Format                      : UTF-8
    Codec ID                    : S_TEXT/UTF8
    Codec ID/Info               : UTF-8 Plain Text
    Duration                    : 1 h 7 min
    Bit rate                    : 0 b/s
    Count of elements           : 9
    Stream size                 : 224 Bytes (0%)
    Title                       : Forzados-SRT [CinemaniaHDD]
    Language                    : Spanish
    Default                     : Yes
    Forced                      : No

    Text #4
    ID                          : 7
    Format                      : UTF-8
    Codec ID                    : S_TEXT/UTF8
    Codec ID/Info               : UTF-8 Plain Text
    Duration                    : 1 h 24 min
    Bit rate                    : 52 b/s
    Count of elements           : 1015
    Stream size                 : 32.7 KiB (0%)
    Title                       : Español-SRT [CinemaniaHDD]
    Language                    : Spanish
    Default                     : No
    Forced                      : No

    Menu
    00:00:00.000                : Chapter 1
    00:03:46.976                : Chapter 2
    00:10:39.847                : Chapter 3
    00:14:09.974                : Chapter 4
    00:22:39.608                : Chapter 5
    00:29:03.408                : Chapter 6
    00:35:18.533                : Chapter 7
    00:40:38.519                : Chapter 8
    00:43:09.211                : Chapter 9
    00:46:12.352                : Chapter 10
    00:52:00.742                : Chapter 11
    00:56:34.224                : Chapter 12
    01:04:13.849                : Chapter 13
    01:09:17.570                : Chapter 14
    01:13:33.283                : Chapter 15
    01:23:31.089                : Chapter 16

     

  • Peso: 4.14 GiB

Sinopsis

Descargar JigSaw (2017) Full HD 1080p Latino. Jigsaw está de vuelta. En esta ocasión atrapará a cinco personas y las enfrentará en una serie de juegos sangrientos como castigo por sus delitos. Al mismo tiempo tiene lugar una investigación en la que científicos forenses tratan de encontrar y capturar al asesino, con la sospecha de que alguien del equipo puede ser el responsable.

RESUBIDA NUEVO RIP VERSION PLACEBO!!!

Ficha técnica

Video trailer de la película

Enlaces de descarga

Rip de Bluray

Descargar JigSaw (2017) Full HD 1080p Latino




Aportes de DPeliculasHDmega la pass es:dpeliculashdmega.org Aportes de CinemaniaHD la pass es:cinemaniahdd.com Aportes recientes:cinemaniahdd.net
Etiquetado en :

Películas relacionadas

  • 57 Seconds (2023) AMZN WEB-DL 1080p Latino

    57 Seconds (2023) AMZN WEB-DL 1080p Latino

    2023
    57 Seconds (2023) AMZN WEB-DL 1080p Latino

    1h 39m 2023

    Cuando un blogger de tecnología consigue una entrevista con un gurú de la tecnología y detiene un...

    Director: Taylor DiMarco

    Género: Acción

    Actores: Valerie E. Lamb

  • Hightown (2024) Temporada 3 AMZN WEB-DL 1080p Latino

    Hightown (2024) Temporada 3 AMZN WEB-DL 1080p Latino

    2020
    Hightown (2024) Temporada 3 AMZN WEB-DL 1080p Latino

    0h 55m 2020

    En la tercera temporada de Hightown, Jackie Quinones debe confiar en sus lealtades y creencias para elegir...

    Director: Rebecca Perry Cutter

    Género: Crimen

    Actores: Riley Voelkel

  • The Bodyguard (1992) Full HD 1080p Latino-CMHDD

    The Bodyguard (1992) Full HD 1080p Latino-CMHDD

    1992
    The Bodyguard (1992) Full HD 1080p Latino-CMHDD

    2h 9m 1992

    Descargar The Bodyguard (1992) Full HD 1080p Latino-CMHDD. Una cantante famosa que recibe constantes...

    Director: Mick Jackson

    Género: Acción

    Actores: Whitney Houston

descargar JigSaw (2017) Full HD 1080p Latino Full 1080p 1080p gratis, JigSaw (2017) Full HD 1080p Latino Full 1080p mega 1 link, JigSaw (2017) Full HD 1080p Latino Full 1080p pelicula completa, descargar JigSaw (2017) Full HD 1080p Latino Full 1080p gratis en mega.

JigSaw (2017) Full HD 1080p Latino pelicula full hd, JigSaw (2017) Full HD 1080p Latino mega latino, JigSaw (2017) Full HD 1080p Latino 4k latino, JigSaw (2017) Full HD 1080p Latino pelicula completa, JigSaw (2017) Full HD 1080p Latino descargar gratis, descargar JigSaw (2017) Full HD 1080p Latino pelicula latino, JigSaw (2017) Full HD 1080p Latino 1 link mega, JigSaw (2017) Full HD 1080p Latino 1 link google drive, JigSaw (2017) Full HD 1080p Latino hd 1080p latino.
Comentarios 0