×

¿Problemas para descargar con Mozilla, EDGE? Deshabilita la opción "Abrir vinculos en una pestaña nueva" tal como lo muestra ésta imagen.

JigSaw (2017) REMUX 1080p Latino-CMHDD

155 vistas

Información de JigSaw (2017) REMUX 1080p Latino-CMHDD

Datos de la película

  • Calidad: Full 1080p
  • Audio: Se especifica abajo de la Sinopsis
  • Subtitulos: Español Latino PGS - Ingles PGS
  • Resolución: 1920x1080p
  • Formato: MKV
  • Codec: H.264
  • Encoder: CinefiloCool
  • Mediainfo: Clic para Mostrar Datos Ver
  • Jigsaw (2017) REMUX 1080p Latino-CMHDD.mkv
    Format                      : Matroska
    Format version              : Version 4
    File size                   : 25.3 GiB
    Duration                    : 1 h 31 min
    Overall bit rate mode       : Variable
    Overall bit rate            : 39.4 Mb/s
    Movie name                  : Jigsaw (2017) CinemaniaHDD.Net
    Encoded date                : UTC 2021-11-03 08:26:46
    Writing application         : mkvmerge v56.1.0 ('My Friend') 64-bit
    Writing library             : libebml v1.4.2 + libmatroska v1.6.4
    Attachments                 : CINEMANIAHD.png

    Video
    ID                          : 1
    Format                      : AVC
    Format/Info                 : Advanced Video Codec
    Format profile              : High@L4.1
    Format settings             : CABAC / 4 Ref Frames
    Format settings, CABAC      : Yes
    Format settings, Reference  : 4 frames
    Codec ID                    : V_MPEG4/ISO/AVC
    Duration                    : 1 h 31 min
    Bit rate mode               : Variable
    Bit rate                    : 34.2 Mb/s
    Maximum bit rate            : 37.0 Mb/s
    Width                       : 1 920 pixels
    Height                      : 1 080 pixels
    Display aspect ratio        : 16:9
    Frame rate mode             : Constant
    Frame rate                  : 23.976 (24000/1001) FPS
    Color space                 : YUV
    Chroma subsampling          : 4:2:0
    Bit depth                   : 8 bits
    Scan type                   : Progressive
    Bits/(Pixel*Frame)          : 0.687
    Stream size                 : 21.9 GiB (87%)
    Title                       : REMUX HD1080p [CinemaniaHDD]
    Default                     : Yes
    Forced                      : No

    Audio #1
    ID                          : 2
    Format                      : AC-3
    Format/Info                 : Audio Coding 3
    Commercial name             : Dolby Digital
    Codec ID                    : A_AC3
    Duration                    : 1 h 31 min
    Bit rate mode               : Constant
    Bit rate                    : 640 kb/s
    Channel(s)                  : 6 channels
    Channel layout              : L R C LFE Ls Rs
    Sampling rate               : 48.0 kHz
    Frame rate                  : 31.250 FPS (1536 SPF)
    Compression mode            : Lossy
    Delay relative to video     : 30 ms
    Stream size                 : 421 MiB (2%)
    Title                       : Español Latino [CinemaniaHDD]
    Language                    : Spanish
    Service kind                : Complete Main
    Default                     : Yes
    Forced                      : No

    Audio #2
    ID                          : 3
    Format                      : MLP FBA 16-ch
    Format/Info                 : Meridian Lossless Packing FBA with 16-channel presentation
    Commercial name             : Dolby TrueHD with Dolby Atmos
    Codec ID                    : A_TRUEHD
    Duration                    : 1 h 31 min
    Bit rate mode               : Variable
    Bit rate                    : 3 817 kb/s
    Maximum bit rate            : 6 375 kb/s
    Channel(s)                  : 8 channels
    Channel layout              : L R C LFE Ls Rs Lb Rb
    Sampling rate               : 48.0 kHz
    Frame rate                  : 1 200.000 FPS (40 SPF)
    Compression mode            : Lossless
    Stream size                 : 2.45 GiB (10%)
    Title                       : Ingles [CinemaniaHDD]
    Language                    : English
    Default                     : No
    Forced                      : No
    Number of dynamic objects   : 11
    Bed channel count           : 1 channel
    Bed channel configuration   : LFE

    Audio #3
    ID                          : 4
    Format                      : AC-3
    Format/Info                 : Audio Coding 3
    Commercial name             : Dolby Digital
    Format settings             : Dolby Surround EX
    Codec ID                    : A_AC3
    Duration                    : 1 h 31 min
    Bit rate mode               : Constant
    Bit rate                    : 640 kb/s
    Channel(s)                  : 6 channels
    Channel layout              : L R C LFE Ls Rs
    Sampling rate               : 48.0 kHz
    Frame rate                  : 31.250 FPS (1536 SPF)
    Compression mode            : Lossy
    Stream size                 : 421 MiB (2%)
    Title                       : Ingles AC3 [CinemaniaHDD]
    Language                    : English
    Service kind                : Complete Main
    Default                     : No
    Forced                      : No

    Text #1
    ID                          : 5
    Format                      : PGS
    Muxing mode                 : zlib
    Codec ID                    : S_HDMV/PGS
    Codec ID/Info               : Picture based subtitle format used on BDs/HD-DVDs
    Duration                    : 1 h 24 min
    Bit rate                    : 35.6 kb/s
    Count of elements           : 2047
    Stream size                 : 21.4 MiB (0%)
    Title                       : Español-PGS [CinemaniaHDD]
    Language                    : Spanish
    Default                     : No
    Forced                      : No

    Text #2
    ID                          : 6
    Format                      : PGS
    Muxing mode                 : zlib
    Codec ID                    : S_HDMV/PGS
    Codec ID/Info               : Picture based subtitle format used on BDs/HD-DVDs
    Duration                    : 1 h 31 min
    Bit rate                    : 40.9 kb/s
    Count of elements           : 2702
    Stream size                 : 26.7 MiB (0%)
    Title                       : Ingles-PGS [CinemaniaHDD]
    Language                    : English
    Default                     : No
    Forced                      : No

    Text #3
    ID                          : 7
    Format                      : UTF-8
    Codec ID                    : S_TEXT/UTF8
    Codec ID/Info               : UTF-8 Plain Text
    Duration                    : 1 h 7 min
    Bit rate                    : 0 b/s
    Count of elements           : 9
    Stream size                 : 224 Bytes (0%)
    Title                       : Forzados-SRT [CinemaniaHDD]
    Language                    : Spanish
    Default                     : Yes
    Forced                      : No

    Text #4
    ID                          : 8
    Format                      : UTF-8
    Codec ID                    : S_TEXT/UTF8
    Codec ID/Info               : UTF-8 Plain Text
    Duration                    : 1 h 24 min
    Bit rate                    : 52 b/s
    Count of elements           : 1015
    Stream size                 : 32.7 KiB (0%)
    Title                       : Español-SRT [CinemaniaHDD]
    Language                    : Spanish
    Default                     : No
    Forced                      : No

    Menu
    00:00:00.000                : Chapter 1
    00:03:46.976                : Chapter 2
    00:10:39.847                : Chapter 3
    00:14:09.974                : Chapter 4
    00:22:39.608                : Chapter 5
    00:29:03.408                : Chapter 6
    00:35:18.533                : Chapter 7
    00:40:38.519                : Chapter 8
    00:43:09.211                : Chapter 9
    00:46:12.352                : Chapter 10
    00:52:00.742                : Chapter 11
    00:56:34.224                : Chapter 12
    01:04:13.849                : Chapter 13
    01:09:17.570                : Chapter 14
    01:13:33.283                : Chapter 15
    01:23:31.089                : Chapter 16

  • Peso: 25.3 GiB

Sinopsis

Descargar JigSaw (2017) REMUX 1080p Latino-CMHDD. Jigsaw está de vuelta. En esta ocasión atrapará a cinco personas y las enfrentará en una serie de juegos sangrientos como castigo por sus delitos. Al mismo tiempo tiene lugar una investigación en la que científicos forenses tratan de encontrar y capturar al asesino, con la sospecha de que alguien del equipo puede ser el responsable.

Audio Español Latino AC3 5.1 Bluray – Ingles TrueHD 7.1 + AC3 5.1 Bluray
DISPONIBLE SOLO PARA VIP!!

Ficha técnica

Video trailer de la película

Enlaces de descarga

Rip de Bluray

Descargar JigSaw (2017) REMUX 1080p Latino-CMHDD


Aportes de DPeliculasHDmega la pass es:dpeliculashdmega.org Aportes de CinemaniaHD la pass es:cinemaniahdd.com
Guardado en : Crimen , Misterio , Remux , Suspenso , Terror

Películas relacionadas

descargar JigSaw (2017) REMUX 1080p Latino-CMHDD Full 1080p 1080p gratis, JigSaw (2017) REMUX 1080p Latino-CMHDD Full 1080p mega 1 link, JigSaw (2017) REMUX 1080p Latino-CMHDD Full 1080p pelicula completa, descargar JigSaw (2017) REMUX 1080p Latino-CMHDD Full 1080p gratis en mega.

JigSaw (2017) REMUX 1080p Latino-CMHDD pelicula full hd, JigSaw (2017) REMUX 1080p Latino-CMHDD mega latino, JigSaw (2017) REMUX 1080p Latino-CMHDD 4k latino, JigSaw (2017) REMUX 1080p Latino-CMHDD pelicula completa, JigSaw (2017) REMUX 1080p Latino-CMHDD descargar gratis, descargar JigSaw (2017) REMUX 1080p Latino-CMHDD pelicula latino, JigSaw (2017) REMUX 1080p Latino-CMHDD 1 link mega, JigSaw (2017) REMUX 1080p Latino-CMHDD 1 link google drive, JigSaw (2017) REMUX 1080p Latino-CMHDD hd 1080p latino.
Comentarios 0