×

¿Problemas para descargar con Mozilla, EDGE? Deshabilita la opción "Abrir vinculos en una pestaña nueva" tal como lo muestra ésta imagen.

Jexi (2019) REMUX 1080p Latino

845 vistas

Información de Jexi (2019) REMUX 1080p Latino

Datos de la película

  • Calidad: Full 1080p
  • Audio: Español Latino AC3 5.1 iTUNES - Ingles DTS 5.1 BLURAY
  • Subtitulos: Español Latino SRT- FORZADOS SRT
  • Resolución: 1920x1080
  • Formato: MKV
  • Codec: H.264
  • Encoder: cinemaniahdd
  • Mediainfo: Clic para Mostrar Datos Ver
  • Jexi (2019) REMUX 1080p Latino.mkv
    Format                      : Matroska
    Format version              : Version 4
    File size                   : 22.7 GiB
    Duration                    : 1 h 24 min
    Overall bit rate mode       : Variable
    Overall bit rate            : 38.4 Mb/s
    Movie name                  : Jexi (2019) - CinemaniaHDD.Net
    Encoded date                : UTC 2020-03-25 21:45:45
    Writing application         : mkvmerge v42.0.0 ('Overtime') 64-bit
    Writing library             : libebml v1.3.10 + libmatroska v1.5.2

    Video
    ID                          : 1
    Format                      : AVC
    Format/Info                 : Advanced Video Codec
    Format profile              : High@L4.1
    Format settings             : CABAC / 4 Ref Frames
    Format settings, CABAC      : Yes
    Format settings, ReFrames   : 4 frames
    Codec ID                    : V_MPEG4/ISO/AVC
    Duration                    : 1 h 24 min
    Bit rate mode               : Variable
    Bit rate                    : 34.7 Mb/s
    Maximum bit rate            : 37.0 Mb/s
    Width                       : 1 920 pixels
    Height                      : 1 080 pixels
    Display aspect ratio        : 16:9
    Frame rate mode             : Constant
    Frame rate                  : 23.976 (24000/1001) FPS
    Color space                 : YUV
    Chroma subsampling          : 4:2:0
    Bit depth                   : 8 bits
    Scan type                   : Progressive
    Bits/(Pixel*Frame)          : 0.697
    Stream size                 : 20.4 GiB (90%)
    Title                       : CinemaniaHDD
    Language                    : English
    Default                     : Yes
    Forced                      : No

    Audio #1
    ID                          : 2
    Format                      : AC-3
    Format/Info                 : Audio Coding 3
    Commercial name             : Dolby Digital
    Codec ID                    : A_AC3
    Duration                    : 1 h 24 min
    Bit rate mode               : Constant
    Bit rate                    : 384 kb/s
    Channel(s)                  : 6 channels
    Channel layout              : L R C LFE Ls Rs
    Sampling rate               : 48.0 kHz
    Frame rate                  : 31.250 FPS (1536 SPF)
    Bit depth                   : 16 bits
    Compression mode            : Lossy
    Stream size                 : 232 MiB (1%)
    Title                       : Español latino [CinemaniaHDD]
    Language                    : Spanish
    Service kind                : Complete Main
    Default                     : No
    Forced                      : No

    Audio #2
    ID                          : 3
    Format                      : DTS XLL
    Format/Info                 : Digital Theater Systems
    Commercial name             : DTS-HD Master Audio
    Codec ID                    : A_DTS
    Duration                    : 1 h 24 min
    Bit rate mode               : Variable
    Bit rate                    : 3 371 kb/s
    Channel(s)                  : 6 channels
    Channel layout              : C L R Ls Rs LFE
    Sampling rate               : 48.0 kHz
    Frame rate                  : 93.750 FPS (512 SPF)
    Bit depth                   : 24 bits
    Compression mode            : Lossless
    Stream size                 : 1.99 GiB (9%)
    Title                       : Inglés [CinemaniaHDD]
    Language                    : English
    Default                     : Yes
    Forced                      : No

    Text #1
    ID                          : 4
    Format                      : UTF-8
    Codec ID                    : S_TEXT/UTF8
    Codec ID/Info               : UTF-8 Plain Text
    Duration                    : 1 h 15 min
    Bit rate                    : 0 b/s
    Count of elements           : 10
    Stream size                 : 234 Bytes (0%)
    Title                       : Forzados [CinemaniaHDD]
    Language                    : Spanish
    Default                     : Yes
    Forced                      : Yes

    Text #2
    ID                          : 5
    Format                      : UTF-8
    Codec ID                    : S_TEXT/UTF8
    Codec ID/Info               : UTF-8 Plain Text
    Duration                    : 1 h 19 min
    Bit rate                    : 88 b/s
    Count of elements           : 1606
    Stream size                 : 51.4 KiB (0%)
    Title                       : Español latino [CinemaniaHDD]
    Language                    : Spanish
    Default                     : No
    Forced                      : No

    Menu
    00:00:00.000                : en:Chapter 01
    00:05:59.401                : en:Chapter 02
    00:08:49.988                : en:Chapter 03
    00:15:44.986                : en:Chapter 04
    00:19:08.272                : en:Chapter 05
    00:25:11.427                : en:Chapter 06
    00:29:39.528                : en:Chapter 07
    00:36:41.324                : en:Chapter 08
    00:40:59.499                : en:Chapter 09
    00:45:43.282                : en:Chapter 10
    00:49:47.401                : en:Chapter 11
    00:57:13.764                : en:Chapter 12
    01:01:16.172                : en:Chapter 13
    01:05:10.573                : en:Chapter 14
    01:10:05.826                : en:Chapter 15
    01:15:38.117                : en:Chapter 16

     

  • Peso: 22.7 GiB

Sinopsis

Phil tiene un grave problema de dependencia… con su teléfono móvil. No tiene amigos, se dedica a trabajar creando listas con los temas musicales pop del momento y su vida amorosa brilla por su ausencia. Sin embargo, su estado de Facebook está a punto de cambiar. Tras comprar un nuevo terminal móvil, descubre la existencia de Jexi, una interfaz artificial que hace las veces de consejera y de asistente virtual. Con su ayuda, Phil comienza a vivir por primera vez. A medida que se vuelve menos dependiente de su móvil, Jexi empieza a desarrollar una actitud un tanto extraña con la que pretende acaparar por completo a Phil, incluso pese a que ello implique perjudicar seriamente sus opciones de tener éxito en la vida.

Ficha técnica

Video trailer de la película

Enlaces de descarga

Rip de Bluray

Descargar Jexi (2019) REMUX 1080p Latino




Aportes de DPeliculasHDmega la pass es:dpeliculashdmega.org Aportes de CinemaniaHD la pass es:cinemaniahdd.com
Guardado en : Comedia , Remux

Películas relacionadas

descargar Jexi (2019) REMUX 1080p Latino Full 1080p 1080p gratis, Jexi (2019) REMUX 1080p Latino Full 1080p mega 1 link, Jexi (2019) REMUX 1080p Latino Full 1080p pelicula completa, descargar Jexi (2019) REMUX 1080p Latino Full 1080p gratis en mega.

Jexi (2019) REMUX 1080p Latino pelicula full hd, Jexi (2019) REMUX 1080p Latino mega latino, Jexi (2019) REMUX 1080p Latino 4k latino, Jexi (2019) REMUX 1080p Latino pelicula completa, Jexi (2019) REMUX 1080p Latino descargar gratis, descargar Jexi (2019) REMUX 1080p Latino pelicula latino, Jexi (2019) REMUX 1080p Latino 1 link mega, Jexi (2019) REMUX 1080p Latino 1 link google drive, Jexi (2019) REMUX 1080p Latino hd 1080p latino.
Comentarios 0