×

¿Problemas para descargar con Mozilla, EDGE? Deshabilita la opción "Abrir vinculos en una pestaña nueva" tal como lo muestra ésta imagen.

Jesus of Nazareth (1977) REMUX 1080p Latino – CMHDD

1.509 vistas

Información de Jesus of Nazareth (1977) REMUX 1080p Latino – CMHDD

Datos de la película

  • Calidad: Full 1080p
  • Audio: Se especifica abajo de la Sinopsis
  • Subtitulos: Español Latino SRT- FORZADOS SRT
  • Resolución: 1920x1080p
  • Formato: MKV
  • Codec: H.264
  • Encoder: Dracarys
  • Mediainfo: Clic para Mostrar Datos Ver
  • Format                      : Matroska
    Format version              : Version 4
    File size                   : 13.0 GiB
    Duration                    : 1 h 36 min
    Overall bit rate mode       : Variable
    Overall bit rate            : 19.3 Mb/s
    Movie name                  : Jesus of Nazareth (1977) [Parte 1] REMUX 1080p Latino - CMHDD
    Encoded date                : UTC 2021-04-01 18:35:08
    Writing application         : mkvmerge v51.0.0 ('I Wish') 64-bit
    Writing library             : libebml v1.4.0 + libmatroska v1.6.2

    Video
    ID                          : 1
    ID in the original source m : 4113 (0x1011)
    Format                      : AVC
    Format/Info                 : Advanced Video Codec
    Format profile              : High@L4.1
    Format settings             : CABAC / 4 Ref Frames
    Format settings, CABAC      : Yes
    Format settings, Reference  : 4 frames
    Codec ID                    : V_MPEG4/ISO/AVC
    Duration                    : 1 h 36 min
    Bit rate mode               : Variable
    Bit rate                    : 18.0 Mb/s
    Maximum bit rate            : 28.0 Mb/s
    Width                       : 1 920 pixels
    Height                      : 1 080 pixels
    Display aspect ratio        : 16:9
    Frame rate mode             : Constant
    Frame rate                  : 24.000 FPS
    Standard                    : NTSC
    Color space                 : YUV
    Chroma subsampling          : 4:2:0
    Bit depth                   : 8 bits
    Scan type                   : Progressive
    Bits/(Pixel*Frame)          : 0.362
    Stream size                 : 12.2 GiB (93%)
    Default                     : Yes
    Forced                      : No
    Color range                 : Limited
    Color primaries             : BT.709
    Transfer characteristics    : BT.709
    Matrix coefficients         : BT.709
    Original source medium      : Blu-ray

    Audio #1
    ID                          : 2
    Format                      : AC-3
    Format/Info                 : Audio Coding 3
    Commercial name             : Dolby Digital
    Codec ID                    : A_AC3
    Duration                    : 1 h 36 min
    Bit rate mode               : Constant
    Bit rate                    : 192 kb/s
    Channel(s)                  : 2 channels
    Channel layout              : L R
    Sampling rate               : 48.0 kHz
    Frame rate                  : 31.250 FPS (1536 SPF)
    Compression mode            : Lossy
    Stream size                 : 133 MiB (1%)
    Language                    : Spanish
    Service kind                : Complete Main
    Default                     : Yes
    Forced                      : No

    Audio #2
    ID                          : 3
    ID in the original source m : 4353 (0x1101)
    Format                      : DTS XLL
    Format/Info                 : Digital Theater Systems
    Commercial name             : DTS-HD Master Audio
    Codec ID                    : A_DTS
    Duration                    : 1 h 36 min
    Bit rate mode               : Variable
    Bit rate                    : 1 080 kb/s
    Channel(s)                  : 2 channels
    Channel layout              : L R
    Sampling rate               : 48.0 kHz
    Frame rate                  : 93.750 FPS (512 SPF)
    Bit depth                   : 16 bits
    Compression mode            : Lossless
    Stream size                 : 748 MiB (6%)
    Language                    : English
    Default                     : No
    Forced                      : No
    Original source medium      : Blu-ray

    Text #1
    ID                          : 4
    ID in the original source m : 4608 (0x1200)
    Format                      : PGS
    Muxing mode                 : zlib
    Codec ID                    : S_HDMV/PGS
    Codec ID/Info               : Picture based subtitle format used on BDs/HD-DVDs
    Duration                    : 1 h 35 min
    Bit rate                    : 26.5 kb/s
    Count of elements           : 1968
    Stream size                 : 18.2 MiB (0%)
    Language                    : Spanish
    Default                     : No
    Forced                      : No
    Original source medium      : Blu-ray

    Text #2
    ID                          : 5
    Format                      : UTF-8
    Codec ID                    : S_TEXT/UTF8
    Codec ID/Info               : UTF-8 Plain Text
    Duration                    : 1 h 32 min
    Bit rate                    : 45 b/s
    Count of elements           : 668
    Stream size                 : 30.8 KiB (0%)
    Language                    : Spanish
    Default                     : No
    Forced                      : No

    Menu
    00:00:00.000                : en:Chapter 01
    00:12:56.250                : en:Chapter 02
    00:18:32.125                : en:Chapter 03
    00:20:52.000                : en:Chapter 04
    00:30:29.750                : en:Chapter 05
    00:42:51.083                : en:Chapter 06
    00:54:10.250                : en:Chapter 07
    01:02:35.208                : en:Chapter 08
    01:06:54.875                : en:Chapter 09
    01:12:53.500                : en:Chapter 10
    01:21:16.375                : en:Chapter 11
    01:36:04.625                : en:Chapter 12

  • Peso: 56.8 GiB

Sinopsis

Jesús de Nazaret es una miniserie de televisión italo-británica producida en el año 1977. Co-escrita y dirigida por Franco Zeffirelli, narra la vida de Jesús de Nazaret desde su nacimiento hasta su crucifixión y resurrección, pasando por la peregrinación durante su juventud, su bautismo y sus milagros.

 

Latino: AC3 2.0  –  Ingles: DTS-HD MA 2.0

Ficha técnica

  • Titulo original: Jesus of Nazareth
  • Fecha de lanzamiento: 06-01-1977 (GB, IT)
  • Director: Franco Zeffirelli
  • Género: Drama

Video trailer de la película

Enlaces de descarga

Rip de Bluray

Descargar Jesus of Nazareth (1977) REMUX 1080p Latino – CMHDD


Aportes de DPeliculasHDmega la pass es:dpeliculashdmega.org Aportes de CinemaniaHD la pass es:cinemaniahdd.com
Guardado en : Drama

Películas relacionadas

  • El discurso del Rey (2010) 1080p Latino

    El discurso del Rey (2010) 1080p Latino

    2010
    El discurso del Rey (2010) 1080p Latino

    1h 58m 2010

    Descargar El discurso del Rey (2010) 1080p Latino. El duque de York se convirtió en rey de Gran Bretaña...

    Director: Tom Hooper

    Género: Drama

    Actores: Tony Earnshaw

  • El discurso del Rey (2010) Full HD 1080p Latino

    El discurso del Rey (2010) Full HD 1080p Latino

    2010
    El discurso del Rey (2010) Full HD 1080p Latino

    1h 58m 2010

    Descargar El discurso del Rey (2010) Full HD 1080p Latino. El duque de York se convirtió en rey de Gran...

    Director: Tom Hooper

    Género: Drama

    Actores: Tony Earnshaw

  • El discurso del Rey (2010) REMUX 1080p Latino

    El discurso del Rey (2010) REMUX 1080p Latino

    2010
    El discurso del Rey (2010) REMUX 1080p Latino

    1h 58m 2010

    Descargar El discurso del Rey (2010) REMUX 1080p Latino. El duque de York se convirtió en rey de Gran...

    Director: Tom Hooper

    Género: Drama

    Actores: Tony Earnshaw

  • 8 Mile (2002) REMUX 4K HDR Latino – CMHDD

    8 Mile (2002) REMUX 4K HDR Latino – CMHDD

    2002
    8 Mile (2002) REMUX 4K HDR Latino – CMHDD

    1h 50m 2002

    Detroit, 1995. La promesa de potencia industrial se ha transformado en un hervidero de conflictos económicos...

    Director: Michael J. Moore

    Género: Drama

    Actores: Xzibit

descargar Jesus of Nazareth (1977) REMUX 1080p Latino – CMHDD Full 1080p 1080p gratis, Jesus of Nazareth (1977) REMUX 1080p Latino – CMHDD Full 1080p mega 1 link, Jesus of Nazareth (1977) REMUX 1080p Latino – CMHDD Full 1080p pelicula completa, descargar Jesus of Nazareth (1977) REMUX 1080p Latino – CMHDD Full 1080p gratis en mega.

Jesus of Nazareth (1977) REMUX 1080p Latino – CMHDD pelicula full hd, Jesus of Nazareth (1977) REMUX 1080p Latino – CMHDD mega latino, Jesus of Nazareth (1977) REMUX 1080p Latino – CMHDD 4k latino, Jesus of Nazareth (1977) REMUX 1080p Latino – CMHDD pelicula completa, Jesus of Nazareth (1977) REMUX 1080p Latino – CMHDD descargar gratis, descargar Jesus of Nazareth (1977) REMUX 1080p Latino – CMHDD pelicula latino, Jesus of Nazareth (1977) REMUX 1080p Latino – CMHDD 1 link mega, Jesus of Nazareth (1977) REMUX 1080p Latino – CMHDD 1 link google drive, Jesus of Nazareth (1977) REMUX 1080p Latino – CMHDD hd 1080p latino.
Comentarios 8
  • gab - 04 abril, 2021

    Veo que no figura mi comentario así que lo reitero: esta película es de interés público por lo que sería un gran gesto que se pueda descargar mediante paste público como ocurre normalmente. (Comento además que en mi país como consecuencia de las políticas económicas el dolar se encuentra sobrevaluado en estos momentos por lo que nos es prohibitivo hacer compras o pagos al exterior)

    • Dracarys - 05 abril, 2021

      Solo VIP

  • gab - 03 abril, 2021

    por favor permitan descargarlo con paste público

    • Dracarys - 05 abril, 2021

      Solo VIP

  • esteban - 02 abril, 2021

    hola porque ya no suben los link solo para usuarios privados

    • Dracarys - 05 abril, 2021

      Solo VIP

  • felixrap17 - 01 abril, 2021

    hola la subiran para usuarios free??

    • Dracarys - 05 abril, 2021

      Solo VIP