×

¿Problemas para descargar con Mozilla, EDGE? Deshabilita la opción "Abrir vinculos en una pestaña nueva" tal como lo muestra ésta imagen.

Jerry Maguire: Amor Y Desafío (1996) 1080p Latino

426 vistas

Información de Jerry Maguire: Amor Y Desafío (1996) 1080p Latino

Datos de la película

  • Calidad: 1080p
  • Audio: Español Latino AC3 5.1 BLURAY - Ingles AC3 5.1 BLURAY
  • Subtitulos: Español Latino SRT - Ingles SRT
  • Resolución: 1920x1036p
  • Formato: MKV
  • Codec: H.264
  • Encoder: CinefiloCool
  • Mediainfo: Clic para Mostrar Datos Ver
  • Jerry Maguire Amor Y Desafío (1996) 1080p Latino-CMHDD.mkv
    Format                      : Matroska
    Format version              : Version 4
    File size                   : 4.93 GiB
    Duration                    : 2 h 18 min
    Overall bit rate            : 5 090 kb/s
    Movie name                  : Jerry Maguire (1996) CinemaniaHDD.Net
    Encoded date                : UTC 2020-07-09 01:46:26
    Writing application         : mkvmerge v46.0.0 ('No Deeper Escape') 64-bit
    Writing library             : libebml v1.3.10 + libmatroska v1.5.2
    Attachments                 : CINEMANIAHD.png

    Video
    ID                          : 1
    Format                      : AVC
    Format/Info                 : Advanced Video Codec
    Format profile              : High@L4.1
    Format settings             : CABAC / 4 Ref Frames
    Format settings, CABAC      : Yes
    Format settings, Reference  : 4 frames
    Codec ID                    : V_MPEG4/ISO/AVC
    Duration                    : 2 h 18 min
    Bit rate                    : 4 000 kb/s
    Width                       : 1 920 pixels
    Height                      : 1 036 pixels
    Display aspect ratio        : 1.85:1
    Frame rate mode             : Constant
    Frame rate                  : 23.976 (24000/1001) FPS
    Color space                 : YUV
    Chroma subsampling          : 4:2:0
    Bit depth                   : 8 bits
    Scan type                   : Progressive
    Bits/(Pixel*Frame)          : 0.084
    Stream size                 : 3.87 GiB (79%)
    Title                       : HD1080p [CinemaniaHDD]
    Writing library             : x264 core 157 r2935 545de2f
    Encoding settings           : cabac=1 / ref=4 / deblock=1:-2:-2 / analyse=0x3:0x133 / me=umh / subme=9 / psy=1 / psy_rd=1.00:0.25 / mixed_ref=1 / me_range=16 / chroma_me=1 / trellis=2 / 8x8dct=1 / cqm=0 / deadzone=6,6 / fast_pskip=1 / chroma_qp_offset=-4 / threads=24 / lookahead_threads=2 / sliced_threads=0 / nr=0 / decimate=0 / interlaced=0 / bluray_compat=0 / constrained_intra=0 / bframes=3 / b_pyramid=2 / b_adapt=2 / b_bias=0 / direct=3 / weightb=1 / open_gop=0 / weightp=2 / keyint=240 / keyint_min=24 / scenecut=40 / intra_refresh=0 / rc_lookahead=60 / rc=2pass / mbtree=1 / bitrate=4000 / ratetol=1.0 / qcomp=0.80 / qpmin=0 / qpmax=69 / qpstep=4 / cplxblur=20.0 / qblur=0.5 / vbv_maxrate=62500 / vbv_bufsize=78125 / nal_hrd=none / filler=0 / ip_ratio=1.10 / aq=1:0.50
    Default                     : Yes
    Forced                      : No
    Color range                 : Limited
    Color primaries             : BT.709
    Transfer characteristics    : BT.709
    Matrix coefficients         : BT.709

    Audio #1
    ID                          : 2
    Format                      : AC-3
    Format/Info                 : Audio Coding 3
    Commercial name             : Dolby Digital
    Codec ID                    : A_AC3
    Duration                    : 2 h 18 min
    Bit rate mode               : Constant
    Bit rate                    : 640 kb/s
    Channel(s)                  : 6 channels
    Channel layout              : L R C LFE Ls Rs
    Sampling rate               : 48.0 kHz
    Frame rate                  : 31.250 FPS (1536 SPF)
    Compression mode            : Lossy
    Delay relative to video     : 1 s 979 ms
    Stream size                 : 634 MiB (13%)
    Title                       : Español Latino [CinemaniaHDD]
    Language                    : Spanish
    Service kind                : Complete Main
    Default                     : Yes
    Forced                      : No

    Audio #2
    ID                          : 3
    Format                      : AC-3
    Format/Info                 : Audio Coding 3
    Commercial name             : Dolby Digital
    Codec ID                    : A_AC3
    Duration                    : 2 h 18 min
    Bit rate mode               : Constant
    Bit rate                    : 448 kb/s
    Channel(s)                  : 6 channels
    Channel layout              : L R C LFE Ls Rs
    Sampling rate               : 48.0 kHz
    Frame rate                  : 31.250 FPS (1536 SPF)
    Compression mode            : Lossy
    Delay relative to video     : -5 ms
    Stream size                 : 444 MiB (9%)
    Title                       : Ingles [CinemaniaHDD]
    Language                    : English
    Service kind                : Complete Main
    Default                     : No
    Forced                      : No

    Text #1
    ID                          : 4
    Format                      : UTF-8
    Codec ID                    : S_TEXT/UTF8
    Codec ID/Info               : UTF-8 Plain Text
    Duration                    : 2 h 2 min
    Bit rate                    : 0 b/s
    Count of elements           : 10
    Stream size                 : 220 Bytes (0%)
    Title                       : Forzados-SRT [CinemaniaHDD]
    Language                    : Spanish
    Default                     : Yes
    Forced                      : No

    Text #2
    ID                          : 5
    Format                      : UTF-8
    Codec ID                    : S_TEXT/UTF8
    Codec ID/Info               : UTF-8 Plain Text
    Duration                    : 2 h 12 min
    Bit rate                    : 65 b/s
    Count of elements           : 2063
    Stream size                 : 63.6 KiB (0%)
    Title                       : Español-SRT [CinemaniaHDD]
    Language                    : Spanish
    Default                     : No
    Forced                      : No

    Text #3
    ID                          : 6
    Format                      : UTF-8
    Codec ID                    : S_TEXT/UTF8
    Codec ID/Info               : UTF-8 Plain Text
    Duration                    : 2 h 12 min
    Bit rate                    : 58 b/s
    Count of elements           : 1485
    Stream size                 : 56.8 KiB (0%)
    Title                       : Ingles-SRT [CinemaniaHDD]
    Language                    : English
    Default                     : No
    Forced                      : No

    Menu
    00:00:00.000                : en:Chapter 01
    00:12:46.807                : en:Chapter 02
    00:20:48.205                : en:Chapter 03
    00:29:16.337                : en:Chapter 04
    00:36:34.525                : en:Chapter 05
    00:44:48.143                : en:Chapter 06
    00:59:40.285                : en:Chapter 07
    01:06:41.872                : en:Chapter 08
    01:18:17.526                : en:Chapter 09
    01:28:07.907                : en:Chapter 10
    01:34:03.429                : en:Chapter 11
    01:37:53.325                : en:Chapter 12
    01:45:45.630                : en:Chapter 13
    01:55:47.941                : en:Chapter 14
    02:01:05.800                : en:Chapter 15
    02:10:17.392                : en:Chapter 16

  • Peso: 4.93 GiB

Sinopsis

Descargar Jerry Maguire: Amor Y Desafío (1996) 1080p Latino. Jerry Maguire es un agente de deportes cínico y prometedor que es despedido de la empresa en que trabaja por haber redactado una declaración de principios en la que se lamenta de la falta de ética en su profesión. Sin trabajo y con un único cliente, debe empezar una nueva vida, ayudado por una secretaria que ha decidido abandonarlo todo para trabajar a su lado.

Ficha técnica

Video trailer de la película

Enlaces de descarga

Rip de Bluray

Descargar Jerry Maguire: Amor Y Desafío (1996) 1080p Latino




Aportes de DPeliculasHDmega la pass es:dpeliculashdmega.org Aportes de CinemaniaHD la pass es:cinemaniahdd.com
Guardado en : Comedia , Drama , HD 1080p , Romance

Películas relacionadas

  • Hombre de familia (2000) REMUX 1080p Latino

    Hombre de familia (2000) REMUX 1080p Latino

    2000
    Hombre de familia (2000) REMUX 1080p Latino

    2h 1m 2000

    Descargar Hombre de familia (2000) REMUX 1080p Latino. Jack Campbell es un egocéntrico broker de Wall...

    Director: Robert Schroer

    Género: Comedia

    Actores: Wass Stevens

  • Te Amo Brother (2009) REMUX 1080p Latino

    Te Amo Brother (2009) REMUX 1080p Latino

    2009
    Te Amo Brother (2009) REMUX 1080p Latino

    1h 45m 2009

    Descargar Te Amo Brother (2009) REMUX 1080p Latino. Peter Klaven (Paul Rudd) es un joven que vive muy...

    Director: Scott Robertson

    Género: Comedia

    Actores: Vicki Davis

descargar Jerry Maguire: Amor Y Desafío (1996) 1080p Latino 1080p 1080p gratis, Jerry Maguire: Amor Y Desafío (1996) 1080p Latino 1080p mega 1 link, Jerry Maguire: Amor Y Desafío (1996) 1080p Latino 1080p pelicula completa, descargar Jerry Maguire: Amor Y Desafío (1996) 1080p Latino 1080p gratis en mega.

Jerry Maguire: Amor Y Desafío (1996) 1080p Latino pelicula full hd, Jerry Maguire: Amor Y Desafío (1996) 1080p Latino mega latino, Jerry Maguire: Amor Y Desafío (1996) 1080p Latino 4k latino, Jerry Maguire: Amor Y Desafío (1996) 1080p Latino pelicula completa, Jerry Maguire: Amor Y Desafío (1996) 1080p Latino descargar gratis, descargar Jerry Maguire: Amor Y Desafío (1996) 1080p Latino pelicula latino, Jerry Maguire: Amor Y Desafío (1996) 1080p Latino 1 link mega, Jerry Maguire: Amor Y Desafío (1996) 1080p Latino 1 link google drive, Jerry Maguire: Amor Y Desafío (1996) 1080p Latino hd 1080p latino.
Comentarios 0