×

¿Problemas para descargar con Mozilla, EDGE? Deshabilita la opción "Abrir vinculos en una pestaña nueva" tal como lo muestra ésta imagen.

Jerry Maguire: Amor Y Desafío (1996) Full HD 1080p Latino

2.869 vistas

Información de Jerry Maguire: Amor Y Desafío (1996) Full HD 1080p Latino

Datos de la película

  • Calidad: Full 1080p
  • Audio: Español Latino AC3 5.1 BLURAY - Ingles DTS 5.1 BLURAY
  • Subtitulos: Español Latino PGS - Ingles PGS
  • Resolución: 1920x1080p
  • Formato: MKV
  • Codec: H.264
  • Encoder: Dracarys
  • Mediainfo: Clic para Mostrar Datos Ver
  • Format                                   : Matroska
    Format version                           : Version 4 / Version 2
    File size                                : 15.9 GiB
    Duration                                 : 2 h 18 min
    Overall bit rate                         : 16.5 Mb/s
    Movie name                               : CinemaniaHDD.com
    Encoded date                             : UTC 2018-04-17 19:10:41 / UTC 2018-04-17T05:13:03Z
    Writing application                      : mkvmerge v15.0.0 ('Duel with the Devil') 64-bit
    Writing library                          : libebml v1.3.5 + libmatroska v1.4.5 / Lavf57.7.2

    Video
    ID                                       : 1
    Format                                   : AVC
    Format/Info                              : Advanced Video Codec
    Format profile                           : High@L4.1
    Format settings                          : CABAC / 4 Ref Frames
    Format settings, CABAC                   : Yes
    Format settings, RefFrames               : 4 frames
    Codec ID                                 : V_MPEG4/ISO/AVC
    Duration                                 : 2 h 18 min
    Bit rate                                 : 14.3 Mb/s
    Width                                    : 1 920 pixels
    Height                                   : 1 080 pixels
    Display aspect ratio                     : 16:9
    Frame rate mode                          : Constant
    Frame rate                               : 23.976 (24000/1001) FPS
    Color space                              : YUV
    Chroma subsampling                       : 4:2:0
    Bit depth                                : 8 bits
    Scan type                                : Progressive
    Bits/(Pixel*Frame)                       : 0.287
    Stream size                              : 13.8 GiB (87%)
    Title                                    : Jerry Maguire - Seducción y desafío (1996) Full 1080p Latino
    Writing library                          : x264 core 148 r2708 86b7198
    Encoding settings                        : cabac=1 / ref=4 / deblock=1:0:0 / analyse=0x3:0x133 / me=esa / subme=10 / psy=1 / psy_rd=1.00:0.00 / mixed_ref=1 / me_range=24 / chroma_me=1 / trellis=2 / 8x8dct=1 / cqm=0 / deadzone=21,11 / fast_pskip=1 / chroma_qp_offset=-2 / threads=34 / lookahead_threads=5 / sliced_threads=0 / nr=0 / decimate=1 / interlaced=0 / bluray_compat=0 / constrained_intra=0 / bframes=8 / b_pyramid=2 / b_adapt=2 / b_bias=0 / direct=3 / weightb=1 / open_gop=0 / weightp=2 / keyint=240 / keyint_min=24 / scenecut=40 / intra_refresh=0 / rc_lookahead=60 / rc=crf / mbtree=1 / crf=20.0 / qcomp=0.60 / qpmin=0 / qpmax=69 / qpstep=4 / vbv_maxrate=62500 / vbv_bufsize=78125 / crf_max=0.0 / nal_hrd=none / filler=0 / ip_ratio=1.40 / aq=1:1.00
    Language                                 : English
    Default                                  : Yes
    Forced                                   : No
    Color range                              : Limited
    Color primaries                          : BT.709
    Transfer characteristics                 : BT.709
    Matrix coefficients                      : BT.709
    Statistics Tags Issue                    : mkvmerge v15.0.0 ('Duel with the Devil') 64-bit 2018-04-17 19:10:41 / mkvmerge v15.0.0 ('Duel with the Devil') 64-bit 2018-04-17 19:10:41 / UTC 2018-04-17T05:13:03Z
    FromStats_BitRate                        : 14542597
    FromStats_Duration                       : 02:18:36.308000000
    FromStats_FrameCount                     : 199392
    FromStats_StreamSize                     : 15117590196

    Audio #1
    ID                                       : 2
    Format                                   : AC-3
    Format/Info                              : Audio Coding 3
    Format settings, Endianness              : Big
    Codec ID                                 : A_AC3
    Duration                                 : 2 h 18 min
    Bit rate mode                            : Constant
    Bit rate                                 : 384 kb/s
    Channel(s)                               : 6 channels
    Channel positions                        : Front: L C R, Side: L R, LFE
    Sampling rate                            : 48.0 kHz
    Frame rate                               : 31.250 FPS (1536 SPF)
    Bit depth                                : 16 bits
    Compression mode                         : Lossy
    Delay relative to video                  : 24 ms
    Stream size                              : 381 MiB (2%)
    Language                                 : Spanish
    Service kind                             : Complete Main
    Default                                  : Yes
    Forced                                   : No
    Statistics Tags Issue                    : mkvmerge v15.0.0 ('Duel with the Devil') 64-bit 2018-04-17 19:10:41 / mkvmerge v15.0.0 ('Duel with the Devil') 64-bit 2018-04-17 19:10:41 / UTC 2018-04-17T05:13:03Z
    FromStats_BitRate                        : 384000
    FromStats_Duration                       : 02:18:36.288000000
    FromStats_FrameCount                     : 259884
    FromStats_StreamSize                     : 399181824

    Audio #2
    ID                                       : 3
    Format                                   : DTS
    Format/Info                              : Digital Theater Systems
    Mode                                     : 16
    Format settings, Endianness              : Big
    Codec ID                                 : A_DTS
    Duration                                 : 2 h 18 min
    Bit rate mode                            : Constant
    Bit rate                                 : 1 509 kb/s
    Channel(s)                               : 6 channels
    Channel positions                        : Front: L C R, Side: L R, LFE
    Sampling rate                            : 48.0 kHz
    Frame rate                               : 93.750 FPS (512 SPF)
    Bit depth                                : 16 bits
    Compression mode                         : Lossy
    Stream size                              : 1.46 GiB (9%)
    Language                                 : English
    Default                                  : No
    Forced                                   : No
    Statistics Tags Issue                    : mkvmerge v15.0.0 ('Duel with the Devil') 64-bit 2018-04-17 19:10:41 / mkvmerge v15.0.0 ('Duel with the Devil') 64-bit 2018-04-17 19:10:41 / UTC 2018-04-17T05:13:03Z
    FromStats_BitRate                        : 1508999
    FromStats_Duration                       : 02:18:36.299000000
    FromStats_FrameCount                     : 779653
    FromStats_StreamSize                     : 1568661836

    Text #1
    ID                                       : 4
    Format                                   : UTF-8
    Codec ID                                 : S_TEXT/UTF8
    Codec ID/Info                            : UTF-8 Plain Text
    Title                                    : Forzados/SRT
    Language                                 : Spanish
    Default                                  : Yes
    Forced                                   : Yes
    Statistics Tags Issue                    : mkvmerge v15.0.0 ('Duel with the Devil') 64-bit 2018-04-17 19:10:41 / mkvmerge v15.0.0 ('Duel with the Devil') 64-bit 2018-04-17 19:10:41 / UTC 2018-04-17T05:13:03Z
    FromStats_BitRate                        : 0
    FromStats_Duration                       : 02:00:58.376000000
    FromStats_FrameCount                     : 9
    FromStats_StreamSize                     : 205

    Text #2
    ID                                       : 5
    Format                                   : PGS
    Muxing mode                              : zlib
    Codec ID                                 : S_HDMV/PGS
    Codec ID/Info                            : Picture based subtitle format used on BDs/HD-DVDs
    Language                                 : English
    Default                                  : No
    Forced                                   : No
    Statistics Tags Issue                    : mkvmerge v15.0.0 ('Duel with the Devil') 64-bit 2018-04-17 19:10:41 / mkvmerge v15.0.0 ('Duel with the Devil') 64-bit 2018-04-17 19:10:41 / UTC 2018-04-17T05:13:03Z
    FromStats_BitRate                        : 44376
    FromStats_Duration                       : 02:17:49.135000000
    FromStats_FrameCount                     : 4123
    FromStats_StreamSize                     : 45869728

    Text #3
    ID                                       : 6
    Format                                   : PGS
    Muxing mode                              : zlib
    Codec ID                                 : S_HDMV/PGS
    Codec ID/Info                            : Picture based subtitle format used on BDs/HD-DVDs
    Language                                 : Spanish
    Default                                  : No
    Forced                                   : No
    Statistics Tags Issue                    : mkvmerge v15.0.0 ('Duel with the Devil') 64-bit 2018-04-17 19:10:41 / mkvmerge v15.0.0 ('Duel with the Devil') 64-bit 2018-04-17 19:10:41 / UTC 2018-04-17T05:13:03Z
    FromStats_BitRate                        : 36618
    FromStats_Duration                       : 02:12:54.258000000
    FromStats_FrameCount                     : 4123
    FromStats_StreamSize                     : 36500910

    Menu
    00:00:00.000                             : :Chapter 1
    00:12:46.808                             : :Chapter 2
    00:20:48.205                             : :Chapter 3
    00:29:16.338                             : :Chapter 4
    00:36:34.526                             : :Chapter 5
    00:44:48.144                             : :Chapter 6
    00:59:40.285                             : :Chapter 7
    01:06:41.873                             : :Chapter 8
    01:18:16.775                             : :Chapter 9
    01:28:07.908                             : :Chapter 10
    01:34:03.429                             : :Chapter 11
    01:37:53.326                             : :Chapter 12
    01:45:45.631                             : :Chapter 13
    01:55:47.941                             : :Chapter 14
    02:01:05.800                             : :Chapter 15
    02:10:17.393                             : :Chapter 16

  • Peso: 15.9 GiB

Sinopsis

Descargar Jerry Maguire: Amor Y Desafío (1996) Full HD 1080p Latino. Jerry Maguire es un agente de deportes cínico y prometedor que es despedido de la empresa en que trabaja por haber redactado una declaración de principios en la que se lamenta de la falta de ética en su profesión. Sin trabajo y con un único cliente, debe empezar una nueva vida, ayudado por una secretaria que ha decidido abandonarlo todo para trabajar a su lado.

RESUBIDO!

Ficha técnica

Video trailer de la película

Enlaces de descarga

Rip de Bluray

Descargar Jerry Maguire: Amor Y Desafío (1996) Full HD 1080p Latino




Aportes de DPeliculasHDmega la pass es:dpeliculashdmega.org Aportes de CinemaniaHD la pass es:cinemaniahdd.com

Películas relacionadas

  • Men in Black (1997) REMUX 4K HDR Latino – CMHDD

    Men in Black (1997) REMUX 4K HDR Latino – CMHDD

    1997
    Men in Black (1997) REMUX 4K HDR Latino – CMHDD

    1h 34m 1997

    Durante muchos años los extraterrestres han vivido en la Tierra, mezclados con los humanos, sin que...

    Director: Tyrone S. Walker

    Género: Acción

    Actores: Willie C. Carpenter

  • Blonde (2022) NF WEB-DL 1080p Latino

    Blonde (2022) NF WEB-DL 1080p Latino

    2022
    Blonde (2022) NF WEB-DL 1080p Latino

    2h 46m 2022

    Descargar Blonde (2022) NF WEB-DL 1080p Latino. Basada en el bestseller de la cinco veces finalista al...

    Director: Kristin Bree Calabrese

    Género: Drama

    Actores: Xavier Samuel

  • Tren Bala (2022) WEB-DL 4K UHD HDR Latino

    Tren Bala (2022) WEB-DL 4K UHD HDR Latino

    2022
    Tren Bala (2022) WEB-DL 4K UHD HDR Latino

    2h 7m 2022

    Descargar Tren Bala (2022) WEB-DL 4K UHD HDR Latino. El desafortunado asesino "Catarina" está decidido...

    Director: Paul Barry

    Género: 4K HDR

    Actores: Zooey Miyoshi

descargar Jerry Maguire: Amor Y Desafío (1996) Full HD 1080p Latino Full 1080p 1080p gratis, Jerry Maguire: Amor Y Desafío (1996) Full HD 1080p Latino Full 1080p mega 1 link, Jerry Maguire: Amor Y Desafío (1996) Full HD 1080p Latino Full 1080p pelicula completa, descargar Jerry Maguire: Amor Y Desafío (1996) Full HD 1080p Latino Full 1080p gratis en mega.

Jerry Maguire: Amor Y Desafío (1996) Full HD 1080p Latino pelicula full hd, Jerry Maguire: Amor Y Desafío (1996) Full HD 1080p Latino mega latino, Jerry Maguire: Amor Y Desafío (1996) Full HD 1080p Latino 4k latino, Jerry Maguire: Amor Y Desafío (1996) Full HD 1080p Latino pelicula completa, Jerry Maguire: Amor Y Desafío (1996) Full HD 1080p Latino descargar gratis, descargar Jerry Maguire: Amor Y Desafío (1996) Full HD 1080p Latino pelicula latino, Jerry Maguire: Amor Y Desafío (1996) Full HD 1080p Latino 1 link mega, Jerry Maguire: Amor Y Desafío (1996) Full HD 1080p Latino 1 link google drive, Jerry Maguire: Amor Y Desafío (1996) Full HD 1080p Latino hd 1080p latino.
Comentarios 0