×

¿Problemas para descargar con Mozilla, EDGE? Deshabilita la opción "Abrir vinculos en una pestaña nueva" tal como lo muestra ésta imagen.

Jay y Bob el silencioso: el reboot (2019) REMUX 1080p Latino

364 vistas

Información de Jay y Bob el silencioso: el reboot (2019) REMUX 1080p Latino

Datos de la película

  • Calidad: Full 1080p
  • Audio: Español Latino AC3 2.0 DVD - Ingles DTS 5.1 BLURAY
  • Subtitulos: Español Latino PGS - Ingles PGS
  • Resolución: 1920x1080p
  • Formato: MKV
  • Codec: H.264
  • Encoder: CinefiloCool
  • Mediainfo: Clic para Mostrar Datos Ver
  • Jay y Bob el Silencioso - El reboot (2019) REMUX 1080p Latino-CMHDD.mkv
    Format                      : Matroska
    Format version              : Version 4
    File size                   : 28.1 GiB
    Duration                    : 1 h 45 min
    Overall bit rate mode       : Variable
    Overall bit rate            : 38.2 Mb/s
    Movie name                  : CinemaniaHDD.Net
    Encoded date                : UTC 2020-02-28 18:11:58
    Writing application         : mkvmerge v42.0.0 ('Overtime') 64-bit
    Writing library             : libebml v1.3.10 + libmatroska v1.5.2
    Attachments                 : CINEMANIAHD.png

    Video
    ID                          : 1
    Format                      : AVC
    Format/Info                 : Advanced Video Codec
    Format profile              : High@L4.1
    Format settings             : CABAC / 4 Ref Frames
    Format settings, CABAC      : Yes
    Format settings, ReFrames   : 4 frames
    Codec ID                    : V_MPEG4/ISO/AVC
    Duration                    : 1 h 45 min
    Bit rate mode               : Variable
    Bit rate                    : 33.9 Mb/s
    Maximum bit rate            : 37.0 Mb/s
    Width                       : 1 920 pixels
    Height                      : 1 080 pixels
    Display aspect ratio        : 16:9
    Frame rate mode             : Constant
    Frame rate                  : 23.976 (24000/1001) FPS
    Color space                 : YUV
    Chroma subsampling          : 4:2:0
    Bit depth                   : 8 bits
    Scan type                   : Progressive
    Bits/(Pixel*Frame)          : 0.681
    Stream size                 : 24.9 GiB (89%)
    Title                       : Full HD1080p [REMUX]
    Default                     : Yes
    Forced                      : Yes

    Audio #1
    ID                          : 2
    Format                      : AC-3
    Format/Info                 : Audio Coding 3
    Commercial name             : Dolby Digital
    Codec ID                    : A_AC3
    Duration                    : 1 h 45 min
    Bit rate mode               : Constant
    Bit rate                    : 384 kb/s
    Channel(s)                  : 2 channels
    Channel layout              : L R
    Sampling rate               : 48.0 kHz
    Frame rate                  : 31.250 FPS (1536 SPF)
    Bit depth                   : 16 bits
    Compression mode            : Lossy
    Stream size                 : 289 MiB (1%)
    Title                       : AC3_2.0_DVD_Esp
    Language                    : Spanish
    Service kind                : Complete Main
    Default                     : Yes
    Forced                      : Yes

    Audio #2
    ID                          : 3
    Format                      : DTS XLL
    Format/Info                 : Digital Theater Systems
    Commercial name             : DTS-HD Master Audio
    Codec ID                    : A_DTS
    Duration                    : 1 h 45 min
    Bit rate mode               : Variable
    Bit rate                    : 3 847 kb/s
    Channel(s)                  : 6 channels
    Channel layout              : C L R Ls Rs LFE
    Sampling rate               : 48.0 kHz
    Frame rate                  : 93.750 FPS (512 SPF)
    Bit depth                   : 24 bits
    Compression mode            : Lossless
    Stream size                 : 2.83 GiB (10%)
    Title                       : DTS-HD_5.1_Bluray_Eng
    Language                    : English
    Default                     : No
    Forced                      : No

    Text #1
    ID                          : 4
    Format                      : PGS
    Muxing mode                 : zlib
    Codec ID                    : S_HDMV/PGS
    Codec ID/Info               : Picture based subtitle format used on BDs/HD-DVDs
    Duration                    : 1 h 43 min
    Bit rate                    : 59.9 kb/s
    Count of elements           : 3629
    Stream size                 : 44.3 MiB (0%)
    Title                       : Sub_Esp [PGS]
    Language                    : Spanish
    Default                     : No
    Forced                      : No

    Text #2
    ID                          : 5
    Format                      : PGS
    Muxing mode                 : zlib
    Codec ID                    : S_HDMV/PGS
    Codec ID/Info               : Picture based subtitle format used on BDs/HD-DVDs
    Duration                    : 1 h 44 min
    Bit rate                    : 67.9 kb/s
    Count of elements           : 3936
    Stream size                 : 50.5 MiB (0%)
    Title                       : Sub_Eng [PGS]
    Language                    : English
    Default                     : No
    Forced                      : No

    Text #3
    ID                          : 6
    Format                      : UTF-8
    Codec ID                    : S_TEXT/UTF8
    Codec ID/Info               : UTF-8 Plain Text
    Duration                    : 1 h 41 min
    Bit rate                    : 1 b/s
    Count of elements           : 42
    Stream size                 : 1.01 KiB (0%)
    Title                       : Sub_Forzados
    Language                    : Spanish
    Default                     : Yes
    Forced                      : Yes

    Text #4
    ID                          : 7
    Format                      : UTF-8
    Codec ID                    : S_TEXT/UTF8
    Codec ID/Info               : UTF-8 Plain Text
    Duration                    : 1 h 43 min
    Bit rate                    : 87 b/s
    Count of elements           : 1812
    Stream size                 : 66.3 KiB (0%)
    Title                       : Sub_Esp
    Language                    : Spanish
    Default                     : No
    Forced                      : No

    Menu
    00:00:00.000                : en:Chapter 01
    00:03:38.676                : en:Chapter 02
    00:09:30.653                : en:Chapter 03
    00:16:32.658                : en:Chapter 04
    00:24:10.323                : en:Chapter 05
    00:30:43.633                : en:Chapter 06
    00:40:34.014                : en:Chapter 07
    00:44:53.941                : en:Chapter 08
    00:48:46.715                : en:Chapter 09
    00:54:34.020                : en:Chapter 10
    00:59:27.146                : en:Chapter 11
    01:07:03.227                : en:Chapter 12
    01:10:01.697                : en:Chapter 13
    01:16:08.480                : en:Chapter 14
    01:25:37.215                : en:Chapter 15
    01:32:39.762                : en:Chapter 16

  • Peso: 28.1 GiB

Sinopsis

Descargar Jay y Bob el silencioso: el reboot (2019) REMUX 1080p Latino. Jay y Silent Bob se embarcan en una misión a través del país para evitar que Hollywood reinicie la película basada en sus contrapartes de cómics Bluntman y Chronic.

Ficha técnica

  • Titulo original: Jay and Silent Bob Reboot
  • Fecha de lanzamiento: 15-10-2019 (United States of America)
  • Director: Kevin Smith
  • Género: Comedia, Remux

Video trailer de la película

Enlaces de descarga

Rip de Bluray

Descargar Jay y Bob el silencioso: el reboot (2019) REMUX 1080p Latino




Aportes de DPeliculasHDmega la pass es:dpeliculashdmega.org Aportes de CinemaniaHD la pass es:cinemaniahdd.com
Guardado en : Comedia , Remux

Películas relacionadas

descargar Jay y Bob el silencioso: el reboot (2019) REMUX 1080p Latino Full 1080p 1080p gratis, Jay y Bob el silencioso: el reboot (2019) REMUX 1080p Latino Full 1080p mega 1 link, Jay y Bob el silencioso: el reboot (2019) REMUX 1080p Latino Full 1080p pelicula completa, descargar Jay y Bob el silencioso: el reboot (2019) REMUX 1080p Latino Full 1080p gratis en mega.

Jay y Bob el silencioso: el reboot (2019) REMUX 1080p Latino pelicula full hd, Jay y Bob el silencioso: el reboot (2019) REMUX 1080p Latino mega latino, Jay y Bob el silencioso: el reboot (2019) REMUX 1080p Latino 4k latino, Jay y Bob el silencioso: el reboot (2019) REMUX 1080p Latino pelicula completa, Jay y Bob el silencioso: el reboot (2019) REMUX 1080p Latino descargar gratis, descargar Jay y Bob el silencioso: el reboot (2019) REMUX 1080p Latino pelicula latino, Jay y Bob el silencioso: el reboot (2019) REMUX 1080p Latino 1 link mega, Jay y Bob el silencioso: el reboot (2019) REMUX 1080p Latino 1 link google drive, Jay y Bob el silencioso: el reboot (2019) REMUX 1080p Latino hd 1080p latino.
Comentarios 0