×

¿Problemas para descargar con Mozilla, EDGE? Deshabilita la opción "Abrir vinculos en una pestaña nueva" tal como lo muestra ésta imagen.

Tiburón (1975) REMUX 1080p Latino-CMHDD

55 vistas

Información de Tiburón (1975) REMUX 1080p Latino-CMHDD

Datos de la película

  • Calidad: Full 1080p
  • Audio: Español Latino DTS 5.1 BLURAY - Ingles DTS-HD Master 7.1 BLURAY
  • Subtitulos: Español Latino PGS - Ingles PGS
  • Resolución: 1920x1080p
  • Formato: MKV
  • Codec: H.264
  • Encoder: CinefiloCool
  • Mediainfo: Clic para Mostrar Datos Ver
  • Jaws.1975.Bluray.REMUX.1080p.AVC.Latino-CC@CMHDD.mkv
    Format                      : Matroska
    Format version              : Version 4
    File size                   : 30.4 GiB
    Duration                    : 2 h 4 min
    Overall bit rate mode       : Variable
    Overall bit rate            : 35.1 Mb/s
    Movie name                  : Jaws (1975) CinemaniaHDD.Net
    Encoded date                : UTC 2024-06-15 05:49:52
    Writing application         : mkvmerge v56.1.0 ('My Friend') 64-bit
    Writing library             : libebml v1.4.2 + libmatroska v1.6.4
    Attachments                 : CINEMANIAHD.png

    Video
    ID                          : 1
    Format                      : AVC
    Format/Info                 : Advanced Video Codec
    Format profile              : High@L4.1
    Format settings             : CABAC / 4 Ref Frames
    Format settings, CABAC      : Yes
    Format settings, Reference  : 4 frames
    Codec ID                    : V_MPEG4/ISO/AVC
    Duration                    : 2 h 4 min
    Bit rate mode               : Variable
    Bit rate                    : 29.4 Mb/s
    Maximum bit rate            : 35.0 Mb/s
    Width                       : 1 920 pixels
    Height                      : 1 080 pixels
    Display aspect ratio        : 16:9
    Frame rate mode             : Constant
    Frame rate                  : 23.976 (24000/1001) FPS
    Color space                 : YUV
    Chroma subsampling          : 4:2:0
    Bit depth                   : 8 bits
    Scan type                   : Progressive
    Bits/(Pixel*Frame)          : 0.592
    Stream size                 : 25.5 GiB (84%)
    Title                       : REMUX HD1080p [CinemaniaHDD]
    Language                    : English
    Default                     : Yes
    Forced                      : Yes

    Audio #1
    ID                          : 2
    Format                      : DTS
    Format/Info                 : Digital Theater Systems
    Codec ID                    : A_DTS
    Duration                    : 2 h 3 min
    Bit rate mode               : Constant
    Bit rate                    : 768 kb/s
    Channel(s)                  : 6 channels
    Channel layout              : C L R Ls Rs LFE
    Sampling rate               : 48.0 kHz
    Frame rate                  : 93.750 FPS (512 SPF)
    Bit depth                   : 24 bits
    Compression mode            : Lossy
    Stream size                 : 681 MiB (2%)
    Title                       : Español Latino [CinemaniaHDD]
    Language                    : Spanish
    Default                     : Yes
    Forced                      : Yes

    Audio #2
    ID                          : 3
    Format                      : DTS XLL
    Format/Info                 : Digital Theater Systems
    Commercial name             : DTS-HD Master Audio
    Codec ID                    : A_DTS
    Duration                    : 2 h 4 min
    Bit rate mode               : Variable
    Bit rate                    : 4 893 kb/s
    Channel(s)                  : 8 channels
    Channel layout              : C L R LFE Lb Rb Lss Rss
    Sampling rate               : 48.0 kHz
    Frame rate                  : 93.750 FPS (512 SPF)
    Bit depth                   : 24 bits
    Compression mode            : Lossless
    Stream size                 : 4.24 GiB (14%)
    Title                       : Ingles [CinemaniaHDD]
    Language                    : English
    Default                     : No
    Forced                      : No

    Text #1
    ID                          : 4
    Format                      : PGS
    Muxing mode                 : zlib
    Codec ID                    : S_HDMV/PGS
    Codec ID/Info               : Picture based subtitle format used on BDs/HD-DVDs
    Duration                    : 1 h 44 min
    Bit rate                    : 206 b/s
    Count of elements           : 18
    Stream size                 : 158 KiB (0%)
    Title                       : Forzados-PGS [CinemaniaHDD]
    Language                    : Spanish
    Default                     : No
    Forced                      : No

    Text #2
    ID                          : 5
    Format                      : PGS
    Muxing mode                 : zlib
    Codec ID                    : S_HDMV/PGS
    Codec ID/Info               : Picture based subtitle format used on BDs/HD-DVDs
    Duration                    : 2 h 0 min
    Bit rate                    : 31.7 kb/s
    Count of elements           : 2288
    Stream size                 : 27.2 MiB (0%)
    Title                       : Español-PGS [CinemaniaHDD]
    Language                    : Spanish
    Default                     : No
    Forced                      : No

    Text #3
    ID                          : 6
    Format                      : UTF-8
    Codec ID                    : S_TEXT/UTF8
    Codec ID/Info               : UTF-8 Plain Text
    Duration                    : 2 h 2 min
    Bit rate                    : 57 b/s
    Count of elements           : 1587
    Stream size                 : 51.7 KiB (0%)
    Title                       : Ingles [CinemaniaHDD]
    Language                    : English
    Default                     : No
    Forced                      : No

    Text #4
    ID                          : 7
    Format                      : UTF-8
    Codec ID                    : S_TEXT/UTF8
    Codec ID/Info               : UTF-8 Plain Text
    Duration                    : 1 h 44 min
    Bit rate                    : 1 b/s
    Count of elements           : 37
    Stream size                 : 1.14 KiB (0%)
    Title                       : Forzados-SRT [CinemaniaHDD]
    Language                    : Spanish
    Default                     : Yes
    Forced                      : Yes

    Text #5
    ID                          : 8
    Format                      : UTF-8
    Codec ID                    : S_TEXT/UTF8
    Codec ID/Info               : UTF-8 Plain Text
    Duration                    : 2 h 0 min
    Bit rate                    : 50 b/s
    Count of elements           : 1158
    Stream size                 : 44.8 KiB (0%)
    Title                       : Español-SRT [CinemaniaHDD]
    Language                    : Spanish
    Default                     : No
    Forced                      : No

    Menu
    00:00:00.000                : 00:00:00.000
    00:01:48.900                : 00:01:48.900
    00:07:33.787                : 00:07:33.787
    00:11:20.179                : 00:11:20.179
    00:13:35.356                : 00:13:35.356
    00:18:11.590                : 00:18:11.590
    00:24:30.260                : 00:24:30.260
    00:27:41.243                : 00:27:41.243
    00:32:46.673                : 00:32:46.673
    00:45:18.007                : 00:45:18.007
    00:53:31.041                : 00:53:31.041
    01:01:28.643                : 01:01:28.643
    01:06:11.801                : 01:06:11.801
    01:21:03.192                : 01:21:03.192
    01:26:24.971                : 01:26:24.971
    01:36:24.237                : 01:36:24.237
    01:50:00.803                : 01:50:00.803
    01:56:47.167                : 01:56:47.167
    01:57:52.357                : 01:57:52.357
    02:02:35.640                : 02:02:35.640

  • Peso: 30.4 GiB

Sinopsis

Descargar Tiburón (1975) REMUX 1080p Latino-CMHDD. En la costa de un pequeño pueblo del Este de Estados Unidos, un enorme tiburón ataca a varias personas. Temiendo las fatales consecuencias que esto puede provocar en el negocio turístico, el alcalde se niega a cerrar las playas y a difundir la noticia. Pero un nuevo ataque del tiburón, en la propia playa, termina con la vida de otro bañista. El terror se ha hecho público, así que un veterano cazador de tiburones, un científico y el jefe de la policía local se unen para dar caza al temible escualo…

Ficha técnica

Video trailer de la película

Enlaces de descarga

Rip de Bluray

Descargar Tiburón (1975) REMUX 1080p Latino-CMHDD


Aportes de DPeliculasHDmega la pass es:dpeliculashdmega.org Aportes de CinemaniaHD la pass es:cinemaniahdd.com Aportes recientes:cinemaniahdd.net
Guardado en : Aventura , Remux , Suspenso , Terror

Películas relacionadas

descargar Tiburón (1975) REMUX 1080p Latino-CMHDD Full 1080p 1080p gratis, Tiburón (1975) REMUX 1080p Latino-CMHDD Full 1080p mega 1 link, Tiburón (1975) REMUX 1080p Latino-CMHDD Full 1080p pelicula completa, descargar Tiburón (1975) REMUX 1080p Latino-CMHDD Full 1080p gratis en mega.

Tiburón (1975) REMUX 1080p Latino-CMHDD pelicula full hd, Tiburón (1975) REMUX 1080p Latino-CMHDD mega latino, Tiburón (1975) REMUX 1080p Latino-CMHDD 4k latino, Tiburón (1975) REMUX 1080p Latino-CMHDD pelicula completa, Tiburón (1975) REMUX 1080p Latino-CMHDD descargar gratis, descargar Tiburón (1975) REMUX 1080p Latino-CMHDD pelicula latino, Tiburón (1975) REMUX 1080p Latino-CMHDD 1 link mega, Tiburón (1975) REMUX 1080p Latino-CMHDD 1 link google drive, Tiburón (1975) REMUX 1080p Latino-CMHDD hd 1080p latino.
Comentarios 0