×

¿Problemas para descargar con Mozilla, EDGE? Deshabilita la opción "Abrir vinculos en una pestaña nueva" tal como lo muestra ésta imagen.

Jaula Mental (2022) WEB-DL 4K UHD HDR Latino

35 vistas

Información de Jaula Mental (2022) WEB-DL 4K UHD HDR Latino

Datos de la película

  • Calidad: WEBDL
  • Audio: Español Latino AC3 5.1 WEB-DL - Ingles AC3 5.1 WEB-DL
  • Subtitulos: Español Latino SRT- FORZADOS SRT
  • Resolución: 3824x1592p
  • Formato: MKV
  • Codec: HEVC
  • Encoder: Melkor
  • Mediainfo: Clic para Mostrar Datos Ver
  • Jaula Mental (2022) WEB UHD HDR Latino.mkv Format                      : Matroska Format version              : Version 4 File size                   : 10.9 GiB Duration                    : 1 h 36 min Overall bit rate            : 16.2 Mb/s Movie name                  : Mindcage (2022) CinemaniaHDD.Net Encoded date                : UTC 2023-01-20 04:11:44 Writing application         : mkvmerge v56.1.0 ('My Friend') 64-bit Writing library             : libebml v1.4.2 + libmatroska v1.6.4 Attachments                 : CINEMANIAHD.png Video ID                          : 1 Format                      : HEVC Format/Info                 : High Efficiency Video Coding Format profile              : Main 10@L5@High HDR format                  : SMPTE ST 2094 App 4, Version 1, HDR10+ Profile B compatible Codec ID                    : V_MPEGH/ISO/HEVC Duration                    : 1 h 36 min Bit rate                    : 14.5 Mb/s Width                       : 3 824 pixels Height                      : 1 592 pixels Display aspect ratio        : 2.40:1 Frame rate mode             : Constant Frame rate                  : 23.976 (24000/1001) FPS Color space                 : YUV Chroma subsampling          : 4:2:0 (Type 2) Bit depth                   : 10 bits Bits/(Pixel*Frame)          : 0.099 Stream size                 : 9.79 GiB (90%) Title                       : Web 2160p HDR [CinemaniaHDD] Default                     : Yes Forced                      : No Color range                 : Limited Color primaries             : BT.2020 Transfer characteristics    : PQ Matrix coefficients         : BT.2020 non-constant Mastering display color pri : Display P3 Mastering display luminance : min: 0.0001 cd/m2, max: 1000 cd/m2 Maximum Content Light Level : 997 cd/m2 Maximum Frame-Average Light : 340 cd/m2 Audio #1 ID                          : 2 Format                      : AC-3 Format/Info                 : Audio Coding 3 Commercial name             : Dolby Digital Codec ID                    : A_AC3 Duration                    : 1 h 36 min Bit rate mode               : Constant Bit rate                    : 640 kb/s Channel(s)                  : 6 channels Channel layout              : L R C LFE Ls Rs Sampling rate               : 48.0 kHz Frame rate                  : 31.250 FPS (1536 SPF) Compression mode            : Lossy Stream size                 : 442 MiB (4%) Title                       : Español Latino AC3 [CinemaniaHDD] Language                    : Spanish Service kind                : Complete Main Default                     : Yes Forced                      : Yes Audio #2 ID                          : 3 Format                      : E-AC-3 Format/Info                 : Enhanced AC-3 Commercial name             : Dolby Digital Plus Codec ID                    : A_EAC3 Duration                    : 1 h 36 min Bit rate mode               : Constant Bit rate                    : 640 kb/s Channel(s)                  : 6 channels Channel layout              : L R C LFE Ls Rs Sampling rate               : 48.0 kHz Frame rate                  : 31.250 FPS (1536 SPF) Compression mode            : Lossy Stream size                 : 442 MiB (4%) Title                       : Español Latino EAC3 [CinemaniaHDD] Language                    : Spanish Service kind                : Complete Main Default                     : No Forced                      : No Audio #3 ID                          : 4 Format                      : AC-3 Format/Info                 : Audio Coding 3 Commercial name             : Dolby Digital Codec ID                    : A_AC3 Duration                    : 1 h 36 min Bit rate mode               : Constant Bit rate                    : 384 kb/s Channel(s)                  : 6 channels Channel layout              : L R C LFE Ls Rs Sampling rate               : 48.0 kHz Frame rate                  : 31.250 FPS (1536 SPF) Compression mode            : Lossy Stream size                 : 265 MiB (2%) Title                       : Ingles [CinemaniaHDD] Language                    : English Service kind                : Complete Main Default                     : No Forced                      : No Text #1 ID                          : 5 Format                      : UTF-8 Codec ID                    : S_TEXT/UTF8 Codec ID/Info               : UTF-8 Plain Text Duration                    : 1 h 25 min Bit rate                    : 0 b/s Count of elements           : 15 Stream size                 : 243 Bytes (0%) Title                       : Forzados-SRT [CinemaniaHDD] Language                    : Spanish Default                     : Yes Forced                      : Yes Text #2 ID                          : 6 Format                      : UTF-8 Codec ID                    : S_TEXT/UTF8 Codec ID/Info               : UTF-8 Plain Text Duration                    : 1 h 30 min Bit rate                    : 50 b/s Count of elements           : 892 Stream size                 : 33.3 KiB (0%) Title                       : Español-SRT [CinemaniaHDD] Language                    : Spanish Default                     : No Forced                      : No Text #3 ID                          : 7 Format                      : UTF-8 Codec ID                    : S_TEXT/UTF8 Codec ID/Info               : UTF-8 Plain Text Duration                    : 1 h 34 min Bit rate                    : 52 b/s Count of elements           : 1058 Stream size                 : 36.1 KiB (0%) Title                       : Ingles-SRT [CinemaniaHDD] Language                    : English Default                     : No Forced                      : No Menu 00:00:00.000                : Chapter 01 00:05:08.933                : Chapter 02 00:18:18.765                : Chapter 03 00:32:00.795                : Chapter 04 00:44:24.497                : Chapter 05 00:59:46.252                : Chapter 06 01:15:22.230                : Chapter 07 01:25:07.982                : Chapter 08 01:33:32.821                : Chapter 09
  • Peso: 10.9 GiB

Sinopsis

Descargar Jaula Mental (2022) WEB-DL 4K UHD HDR Latino. Cuando un asesino que imita otros crímenes comienza a actuar, dos detectives le piden ayuda a un conocido asesino en serie.

Ficha técnica

Video trailer de la película

Enlaces de descarga

Rip de Bluray

Descargar Jaula Mental (2022) WEB-DL 4K UHD HDR Latino




Aportes de DPeliculasHDmega la pass es:dpeliculashdmega.org Aportes de CinemaniaHD la pass es:cinemaniahdd.com
Guardado en : 4K HDR , 4K UHD , Crimen , Drama , Misterio , Suspenso

Películas relacionadas

  • Transfusion (2023) HD 1080p Latino

    Transfusion (2023) HD 1080p Latino

    2023
    Transfusion (2023) HD 1080p Latino

    1h 45m 2023

    Descargar Transfusion (2023) HD 1080p Latino. Un antiguo agente de las Fuerzas Especiales se ve empujado...

    Director: Matt Nable

    Género: Crimen

    Actores: Trystan Go

  • Transfusion (2023) PLACEBO Full HD 1080p Latino

    Transfusion (2023) PLACEBO Full HD 1080p Latino

    2023
    Transfusion (2023) PLACEBO Full HD 1080p Latino

    1h 45m 2023

    Descargar Transfusion (2023) PLACEBO Full HD 1080p Latino. Un antiguo agente de las Fuerzas Especiales...

    Director: Matt Nable

    Género: Crimen

    Actores: Trystan Go

  • Transfusion (2023) REMUX 1080p Latino

    Transfusion (2023) REMUX 1080p Latino

    2023
    Transfusion (2023) REMUX 1080p Latino

    1h 45m 2023

    Descargar Transfusion (2023) REMUX 1080p Latino. Un antiguo agente de las Fuerzas Especiales se ve empujado...

    Director: Matt Nable

    Género: Crimen

    Actores: Trystan Go

  • Quantum Leap (2022) Temporada 1 WEB-DL 1080p Latino

    Quantum Leap (2022) Temporada 1 WEB-DL 1080p Latino

    2022
    Quantum Leap (2022) Temporada 1 WEB-DL 1080p Latino

    0h 43m 2022

    Han pasado 27 años desde que el Dr. Sam Beckett pisó el acelerador Quantum Leap y desapareció. Ahora...

    Director: Donald P. Bellisario

    Género: Drama

    Actores: Raymond Lee

  • Gladiador (2000) EXTENDED CUT 1080p Latino

    Gladiador (2000) EXTENDED CUT 1080p Latino

    2000
    Gladiador (2000) EXTENDED CUT 1080p Latino

    2h 35m 2000

    Gladiador (2000) EXTENDED CUT 1080p Latino. Máximo, General de las Legiones Romanas, es querido por...

    Director: Ridley Scott

    Género: Acción

    Actores: Tony Curran

descargar Jaula Mental (2022) WEB-DL 4K UHD HDR Latino WEBDL 1080p gratis, Jaula Mental (2022) WEB-DL 4K UHD HDR Latino WEBDL mega 1 link, Jaula Mental (2022) WEB-DL 4K UHD HDR Latino WEBDL pelicula completa, descargar Jaula Mental (2022) WEB-DL 4K UHD HDR Latino WEBDL gratis en mega.

Jaula Mental (2022) WEB-DL 4K UHD HDR Latino pelicula full hd, Jaula Mental (2022) WEB-DL 4K UHD HDR Latino mega latino, Jaula Mental (2022) WEB-DL 4K UHD HDR Latino 4k latino, Jaula Mental (2022) WEB-DL 4K UHD HDR Latino pelicula completa, Jaula Mental (2022) WEB-DL 4K UHD HDR Latino descargar gratis, descargar Jaula Mental (2022) WEB-DL 4K UHD HDR Latino pelicula latino, Jaula Mental (2022) WEB-DL 4K UHD HDR Latino 1 link mega, Jaula Mental (2022) WEB-DL 4K UHD HDR Latino 1 link google drive, Jaula Mental (2022) WEB-DL 4K UHD HDR Latino hd 1080p latino.
Comentarios 0