×

¿Problemas para descargar con Mozilla, EDGE? Deshabilita la opción "Abrir vinculos en una pestaña nueva" tal como lo muestra ésta imagen.

Jason Bourne (2016) REMUX 4K HDR Latino – CMHDD

251 vistas

Información de Jason Bourne (2016) REMUX 4K HDR Latino – CMHDD

Datos de la película

  • Calidad: 4K HDR
  • Audio: Se especifica abajo de la Sinopsis
  • Subtitulos: Español Latino PGS
  • Resolución: 3840x2160p
  • Formato: MKV
  • Codec: HEVC
  • Encoder: Dracarys
  • Mediainfo: Clic para Mostrar Datos Ver
  • Format                      : Matroska
    Format version              : Version 4
    File size                   : 56.9 GiB
    Duration                    : 2 h 3 min
    Overall bit rate mode       : Variable
    Overall bit rate            : 66.1 Mb/s
    Movie name                  : Jason Bourne (2016) REMUX 4K HDR Latino - CMHDD
    Encoded date                : UTC 2021-03-11 21:49:44
    Writing application         : mkvmerge v51.0.0 ('I Wish') 64-bit
    Writing library             : libebml v1.4.0 + libmatroska v1.6.2

    Video
    ID                          : 1
    Format                      : HEVC
    Format/Info                 : High Efficiency Video Coding
    Format profile              : Main 10@L5.1@High
    HDR format                  : SMPTE ST 2086, HDR10 compatible
    Codec ID                    : V_MPEGH/ISO/HEVC
    Duration                    : 2 h 3 min
    Bit rate                    : 56.5 Mb/s
    Width                       : 3 840 pixels
    Height                      : 2 160 pixels
    Display aspect ratio        : 16:9
    Frame rate mode             : Constant
    Frame rate                  : 23.976 (24000/1001) FPS
    Color space                 : YUV
    Chroma subsampling          : 4:2:0 (Type 2)
    Bit depth                   : 10 bits
    Bits/(Pixel*Frame)          : 0.284
    Stream size                 : 48.6 GiB (86%)
    Writing library             : ATEME Titan KFE 3.7.3 (4.7.3.1003)
    Default                     : Yes
    Forced                      : No
    Color range                 : Limited
    Color primaries             : BT.2020
    Transfer characteristics    : PQ
    Matrix coefficients         : BT.2020 non-constant
    Mastering display color pri : Display P3
    Mastering display luminance : min: 0.0050 cd/m2, max: 1000 cd/m2
    Maximum Content Light Level : 960 cd/m2
    Maximum Frame-Average Light : 105 cd/m2

    Audio #1
    ID                          : 2
    Format                      : DTS XBR
    Format/Info                 : Digital Theater Systems
    Commercial name             : DTS-HD High Resolution Audio
    Codec ID                    : A_DTS
    Duration                    : 2 h 3 min
    Bit rate mode               : Constant
    Bit rate                    : 2 046 kb/s
    Channel(s)                  : 8 channels
    Channel layout              : C L R LFE Lb Rb Lss Rss
    Sampling rate               : 48.0 kHz
    Frame rate                  : 93.750 FPS (512 SPF)
    Bit depth                   : 24 bits
    Compression mode            : Lossy
    Stream size                 : 1.76 GiB (3%)
    Language                    : Spanish
    Default                     : Yes
    Forced                      : No

    Audio #2
    ID                          : 3
    Format                      : DTS XLL X
    Format/Info                 : Digital Theater Systems
    Commercial name             : DTS-HD Master Audio
    Codec ID                    : A_DTS
    Duration                    : 2 h 3 min
    Bit rate mode               : Variable
    Bit rate                    : 7 515 kb/s
    Channel(s)                  : 8 channels
    Channel(s)_Original         : Object Based
    ChannelLayout_Original      : Object Based
    Sampling rate               : 48.0 kHz
    Frame rate                  : 93.750 FPS (512 SPF)
    Bit depth                   : 24 bits
    Stream size                 : 6.47 GiB (11%)
    Language                    : English
    Default                     : No
    Forced                      : No

    Text #1
    ID                          : 4
    Format                      : PGS
    Muxing mode                 : zlib
    Codec ID                    : S_HDMV/PGS
    Codec ID/Info               : Picture based subtitle format used on BDs/HD-DVDs
    Duration                    : 2 h 2 min
    Bit rate                    : 24.4 kb/s
    Count of elements           : 2260
    Stream size                 : 21.4 MiB (0%)
    Language                    : Spanish
    Default                     : No
    Forced                      : No

    Text #2
    ID                          : 5
    Format                      : PGS
    Muxing mode                 : zlib
    Codec ID                    : S_HDMV/PGS
    Codec ID/Info               : Picture based subtitle format used on BDs/HD-DVDs
    Duration                    : 2 h 0 min
    Bit rate                    : 932 b/s
    Count of elements           : 88
    Stream size                 : 824 KiB (0%)
    Language                    : Spanish
    Default                     : No
    Forced                      : No

  • Peso: 56.9 GiB

Sinopsis

Jason Bourne ha recuperado su memoria, pero eso no significa que el más letal agente de los cuerpos de élite de la CIA lo sepa todo. Han pasado doce años desde la última vez que Bourne estuviera operando en las sombras. ¿Qué ha ocurrido desde entonces? Todavía le quedan muchas preguntas por responder. En medio de un mundo convulso, azotado por la crisis económica y el colapso financiero, la guerra cibernética, y en el que varias organizaciones secretas luchan por el poder, Jason Bourne vuelve a surgir, de forma inesperada, en un momento en que el mundo se enfrenta a una inestabilidad sin precedentes. Desde un lugar oscuro y torturado, Bourne reanudará la búsqueda de respuestas sobre su pasado.

 

Latino: DTS XBR 7.1  –  Ingles: DTS XLL X 7.1

Ficha técnica

Video trailer de la película

Enlaces de descarga

Rip de Bluray

Descargar Jason Bourne (2016) REMUX 4K HDR Latino – CMHDD


Aportes de DPeliculasHDmega la pass es:dpeliculashdmega.org Aportes de CinemaniaHD la pass es:cinemaniahdd.com
Guardado en : Acción , Suspenso

Películas relacionadas

descargar Jason Bourne (2016) REMUX 4K HDR Latino – CMHDD 4K HDR 1080p gratis, Jason Bourne (2016) REMUX 4K HDR Latino – CMHDD 4K HDR mega 1 link, Jason Bourne (2016) REMUX 4K HDR Latino – CMHDD 4K HDR pelicula completa, descargar Jason Bourne (2016) REMUX 4K HDR Latino – CMHDD 4K HDR gratis en mega.

Jason Bourne (2016) REMUX 4K HDR Latino – CMHDD pelicula full hd, Jason Bourne (2016) REMUX 4K HDR Latino – CMHDD mega latino, Jason Bourne (2016) REMUX 4K HDR Latino – CMHDD 4k latino, Jason Bourne (2016) REMUX 4K HDR Latino – CMHDD pelicula completa, Jason Bourne (2016) REMUX 4K HDR Latino – CMHDD descargar gratis, descargar Jason Bourne (2016) REMUX 4K HDR Latino – CMHDD pelicula latino, Jason Bourne (2016) REMUX 4K HDR Latino – CMHDD 1 link mega, Jason Bourne (2016) REMUX 4K HDR Latino – CMHDD 1 link google drive, Jason Bourne (2016) REMUX 4K HDR Latino – CMHDD hd 1080p latino.
Comentarios 0