×

¿Problemas para descargar con Mozilla, EDGE? Deshabilita la opción "Abrir vinculos en una pestaña nueva" tal como lo muestra ésta imagen.

Jarhead: Law of Return (2019) REMUX 1080p Latino

349 vistas

Información de Jarhead: Law of Return (2019) REMUX 1080p Latino

Datos de la película

  • Calidad: Full 1080p
  • Audio: Español Latino AC3 5.1 iTUNES - Ingles DTS 5.1 BLURAY
  • Subtitulos: Español Latino SRT- FORZADOS SRT
  • Resolución: 1920x1080
  • Formato: MKV
  • Codec: H.264
  • Encoder: cinemaniahdd
  • Mediainfo: Clic para Mostrar Datos Ver
  • Jarhead Law of Return (2019) REMUX 1080p Latino.mkv
    Format                      : Matroska
    Format version              : Version 4
    File size                   : 24.4 GiB
    Duration                    : 1 h 42 min
    Overall bit rate mode       : Variable
    Overall bit rate            : 33.9 Mb/s
    Movie name                  : Jarhead Law of Return (2019) - CinemaniaHDD.Net
    Encoded date                : UTC 2020-04-24 22:13:33
    Writing application         : mkvmerge v42.0.0 ('Overtime') 64-bit
    Writing library             : libebml v1.3.10 + libmatroska v1.5.2

    Video
    ID                          : 1
    Format                      : AVC
    Format/Info                 : Advanced Video Codec
    Format profile              : High@L4.1
    Format settings             : CABAC / 4 Ref Frames
    Format settings, CABAC      : Yes
    Format settings, ReFrames   : 4 frames
    Codec ID                    : V_MPEG4/ISO/AVC
    Duration                    : 1 h 42 min
    Bit rate mode               : Variable
    Bit rate                    : 31.2 Mb/s
    Maximum bit rate            : 35.0 Mb/s
    Width                       : 1 920 pixels
    Height                      : 1 080 pixels
    Display aspect ratio        : 16:9
    Frame rate mode             : Constant
    Frame rate                  : 23.976 (24000/1001) FPS
    Color space                 : YUV
    Chroma subsampling          : 4:2:0
    Bit depth                   : 8 bits
    Scan type                   : Progressive
    Bits/(Pixel*Frame)          : 0.627
    Stream size                 : 22.4 GiB (92%)
    Title                       : CinemaniaHDD
    Language                    : English
    Default                     : Yes
    Forced                      : No

    Audio #1
    ID                          : 2
    Format                      : AC-3
    Format/Info                 : Audio Coding 3
    Commercial name             : Dolby Digital
    Codec ID                    : A_AC3
    Duration                    : 1 h 42 min
    Bit rate mode               : Constant
    Bit rate                    : 448 kb/s
    Channel(s)                  : 6 channels
    Channel layout              : L R C LFE Ls Rs
    Sampling rate               : 48.0 kHz
    Frame rate                  : 31.250 FPS (1536 SPF)
    Bit depth                   : 16 bits
    Compression mode            : Lossy
    Stream size                 : 330 MiB (1%)
    Title                       : Español latino [CinemaniaHDD]
    Language                    : Spanish
    Service kind                : Complete Main
    Default                     : Yes
    Forced                      : No

    Audio #2
    ID                          : 3
    Format                      : DTS XLL
    Format/Info                 : Digital Theater Systems
    Commercial name             : DTS-HD Master Audio
    Codec ID                    : A_DTS
    Duration                    : 1 h 42 min
    Bit rate mode               : Variable
    Bit rate                    : 2 260 kb/s
    Channel(s)                  : 6 channels
    Channel layout              : C L R Ls Rs LFE
    Sampling rate               : 48.0 kHz
    Frame rate                  : 93.750 FPS (512 SPF)
    Bit depth                   : 24 bits
    Compression mode            : Lossless
    Stream size                 : 1.62 GiB (7%)
    Title                       : Inglés [CinemaniaHDD]
    Language                    : English
    Default                     : No
    Forced                      : No

    Text #1
    ID                          : 4
    Format                      : UTF-8
    Codec ID                    : S_TEXT/UTF8
    Codec ID/Info               : UTF-8 Plain Text
    Duration                    : 1 h 30 min
    Bit rate                    : 1 b/s
    Count of elements           : 28
    Stream size                 : 760 Bytes (0%)
    Title                       : Forzados [CinemaniaHDD]
    Language                    : Spanish
    Default                     : Yes
    Forced                      : Yes

    Text #2
    ID                          : 5
    Format                      : UTF-8
    Codec ID                    : S_TEXT/UTF8
    Codec ID/Info               : UTF-8 Plain Text
    Duration                    : 1 h 42 min
    Bit rate                    : 47 b/s
    Count of elements           : 1083
    Stream size                 : 35.4 KiB (0%)
    Title                       : Español latino [CinemaniaHDD]
    Language                    : Spanish
    Default                     : No
    Forced                      : No

    Text #3
    ID                          : 6
    Format                      : PGS
    Muxing mode                 : zlib
    Codec ID                    : S_HDMV/PGS
    Codec ID/Info               : Picture based subtitle format used on BDs/HD-DVDs
    Duration                    : 1 h 38 min
    Bit rate                    : 36.7 kb/s
    Count of elements           : 2650
    Stream size                 : 25.9 MiB (0%)
    Title                       : Inglés [CinemaniaHDD]
    Language                    : English
    Default                     : No
    Forced                      : No

    Menu
    00:00:00.000                : :Chapter 1
    00:05:39.172                : :Chapter 2
    00:10:25.542                : :Chapter 3
    00:15:14.205                : :Chapter 4
    00:20:01.117                : :Chapter 5
    00:25:26.859                : :Chapter 6
    00:31:54.704                : :Chapter 7
    00:34:26.982                : :Chapter 8
    00:40:48.738                : :Chapter 9
    00:46:41.090                : :Chapter 10
    00:51:21.870                : :Chapter 11
    00:58:15.575                : :Chapter 12
    01:02:46.471                : :Chapter 13
    01:06:40.246                : :Chapter 14
    01:12:41.649                : :Chapter 15
    01:17:38.237                : :Chapter 16
    01:23:22.289                : :Chapter 17
    01:29:22.357                : :Chapter 18
    01:35:30.141                : :Chapter 19
    01:39:09.444                : :Chapter 20

     

  • Peso: 24.4 GiB

Sinopsis

El comandante Ronan Jackson (Devon Sawa) , un exitoso piloto de caza de las Fuerzas de Defensa Israelíes e hijo de un senador de los Estados Unidos (Robert Patrick), es «cazado» mientras sobrevuela el cielo de Siria.tras sobrevivir de forma milagrosa al accidente, un grupo de la Hezbollah decide hacerlo su prisionero.

Ficha técnica

  • Titulo original: Jarhead: Law of Return
  • Fecha de lanzamiento: 01-10-2019 (Israel, United States of America)
  • Director: Don Michael Paul
  • Género: Bélica, Remux

Video trailer de la película

Enlaces de descarga

Rip de Bluray

Descargar Jarhead: Law of Return (2019) REMUX 1080p Latino




Aportes de DPeliculasHDmega la pass es:dpeliculashdmega.org Aportes de CinemaniaHD la pass es:cinemaniahdd.com
Guardado en : Bélica , Remux

Películas relacionadas

  • Mi amigo el dragón (2016) REMUX 1080p Latino

    Mi amigo el dragón (2016) REMUX 1080p Latino

    2016
    Mi amigo el dragón (2016) REMUX 1080p Latino

    1h 43m 2016

    Descargar Mi amigo el dragón (2016) REMUX 1080p Latino. Durante años el Sr. Meacham, un viejo tallador...

    Director: Joe Nolan

    Género: Aventura

    Actores: William J. Rawbone

  • El discurso del Rey (2010) REMUX 1080p Latino

    El discurso del Rey (2010) REMUX 1080p Latino

    2010
    El discurso del Rey (2010) REMUX 1080p Latino

    1h 58m 2010

    Descargar El discurso del Rey (2010) REMUX 1080p Latino. El duque de York se convirtió en rey de Gran...

    Director: Tom Hooper

    Género: Drama

    Actores: Tony Earnshaw

  • La Ladrona De Libros (2013) REMUX 1080p Latino

    La Ladrona De Libros (2013) REMUX 1080p Latino

    2013
    La Ladrona De Libros (2013) REMUX 1080p Latino

    2h 11m 2013

    Descargar La Ladrona De Libros (2013) REMUX 1080p Latino. La novela de 550 páginas de la Segunda Guerra...

    Director: Elizabeth West

    Género: Drama

    Actores: Stephanie Stremler

descargar Jarhead: Law of Return (2019) REMUX 1080p Latino Full 1080p 1080p gratis, Jarhead: Law of Return (2019) REMUX 1080p Latino Full 1080p mega 1 link, Jarhead: Law of Return (2019) REMUX 1080p Latino Full 1080p pelicula completa, descargar Jarhead: Law of Return (2019) REMUX 1080p Latino Full 1080p gratis en mega.

Jarhead: Law of Return (2019) REMUX 1080p Latino pelicula full hd, Jarhead: Law of Return (2019) REMUX 1080p Latino mega latino, Jarhead: Law of Return (2019) REMUX 1080p Latino 4k latino, Jarhead: Law of Return (2019) REMUX 1080p Latino pelicula completa, Jarhead: Law of Return (2019) REMUX 1080p Latino descargar gratis, descargar Jarhead: Law of Return (2019) REMUX 1080p Latino pelicula latino, Jarhead: Law of Return (2019) REMUX 1080p Latino 1 link mega, Jarhead: Law of Return (2019) REMUX 1080p Latino 1 link google drive, Jarhead: Law of Return (2019) REMUX 1080p Latino hd 1080p latino.
Comentarios 0