×

¿Problemas para descargar con Mozilla, EDGE? Deshabilita la opción "Abrir vinculos en una pestaña nueva" tal como lo muestra ésta imagen.

Jarhead: Law of Return (2019) PLACEBO 1080p Latino

381 vistas

Información de Jarhead: Law of Return (2019) PLACEBO 1080p Latino

Datos de la película

  • Calidad: Full 1080p
  • Audio: Español Latino AC3 5.1 iTUNES - Ingles DTS 5.1 BLURAY
  • Subtitulos: Español Latino SRT- FORZADOS SRT
  • Resolución: 1920x1080
  • Formato: MKV
  • Codec: H.264
  • Encoder: cinemaniahdd
  • Mediainfo: Clic para Mostrar Datos Ver
  • Jarhead Law of Return (2019) PLACEBO 1080p Latino.mkv
    Format                      : Matroska
    Format version              : Version 4
    File size                   : 6.46 GiB
    Duration                    : 1 h 42 min
    Overall bit rate            : 8 997 kb/s
    Movie name                  : Jarhead Law of Return (2019) - CinemaniaHDD.Net
    Encoded date                : UTC 2020-04-24 22:11:32
    Writing application         : mkvmerge v42.0.0 ('Overtime') 64-bit
    Writing library             : libebml v1.3.10 + libmatroska v1.5.2

    Video
    ID                          : 1
    Format                      : AVC
    Format/Info                 : Advanced Video Codec
    Format profile              : High@L4.1
    Format settings             : CABAC / 4 Ref Frames
    Format settings, CABAC      : Yes
    Format settings, ReFrames   : 4 frames
    Codec ID                    : V_MPEG4/ISO/AVC
    Duration                    : 1 h 42 min
    Bit rate                    : 7 037 kb/s
    Width                       : 1 920 pixels
    Height                      : 1 080 pixels
    Display aspect ratio        : 16:9
    Frame rate mode             : Constant
    Frame rate                  : 23.976 (24000/1001) FPS
    Color space                 : YUV
    Chroma subsampling          : 4:2:0
    Bit depth                   : 8 bits
    Scan type                   : Progressive
    Bits/(Pixel*Frame)          : 0.142
    Stream size                 : 5.06 GiB (78%)
    Title                       : CinemaniaHDD
    Writing library             : x264 core 157 r2935 545de2f
    Encoding settings           : cabac=1 / ref=4 / deblock=1:0:0 / analyse=0x3:0x133 / me=tesa / subme=11 / psy=1 / psy_rd=1.00:0.00 / mixed_ref=1 / me_range=24 / chroma_me=1 / trellis=2 / 8x8dct=1 / cqm=0 / deadzone=21,11 / fast_pskip=0 / chroma_qp_offset=-2 / threads=34 / lookahead_threads=8 / sliced_threads=0 / nr=0 / decimate=1 / interlaced=0 / bluray_compat=0 / constrained_intra=0 / bframes=16 / b_pyramid=2 / b_adapt=2 / b_bias=0 / direct=3 / weightb=1 / open_gop=0 / weightp=2 / keyint=240 / keyint_min=24 / scenecut=40 / intra_refresh=0 / rc_lookahead=60 / rc=crf / mbtree=1 / crf=20.0 / qcomp=0.60 / qpmin=0 / qpmax=69 / qpstep=4 / vbv_maxrate=62500 / vbv_bufsize=78125 / crf_max=0.0 / nal_hrd=none / filler=0 / ip_ratio=1.40 / aq=1:1.00
    Default                     : Yes
    Forced                      : No
    Color range                 : Limited
    Color primaries             : BT.709
    Transfer characteristics    : BT.709
    Matrix coefficients         : BT.709

    Audio #1
    ID                          : 2
    Format                      : AC-3
    Format/Info                 : Audio Coding 3
    Commercial name             : Dolby Digital
    Codec ID                    : A_AC3
    Duration                    : 1 h 42 min
    Bit rate mode               : Constant
    Bit rate                    : 448 kb/s
    Channel(s)                  : 6 channels
    Channel layout              : L R C LFE Ls Rs
    Sampling rate               : 48.0 kHz
    Frame rate                  : 31.250 FPS (1536 SPF)
    Bit depth                   : 16 bits
    Compression mode            : Lossy
    Delay relative to video     : -5 ms
    Stream size                 : 330 MiB (5%)
    Title                       : Español latino [CinemaniaHDD]
    Language                    : Spanish
    Service kind                : Complete Main
    Default                     : Yes
    Forced                      : No

    Audio #2
    ID                          : 3
    Format                      : DTS
    Format/Info                 : Digital Theater Systems
    Codec ID                    : A_DTS
    Duration                    : 1 h 42 min
    Bit rate mode               : Constant
    Bit rate                    : 1 509 kb/s
    Channel(s)                  : 6 channels
    Channel layout              : C L R Ls Rs LFE
    Sampling rate               : 48.0 kHz
    Frame rate                  : 93.750 FPS (512 SPF)
    Bit depth                   : 24 bits
    Compression mode            : Lossy
    Delay relative to video     : -5 ms
    Stream size                 : 1.08 GiB (17%)
    Title                       : Inglés [CinemaniaHDD]
    Language                    : English
    Default                     : No
    Forced                      : No

    Text #1
    ID                          : 4
    Format                      : UTF-8
    Codec ID                    : S_TEXT/UTF8
    Codec ID/Info               : UTF-8 Plain Text
    Duration                    : 1 h 30 min
    Bit rate                    : 1 b/s
    Count of elements           : 28
    Stream size                 : 760 Bytes (0%)
    Title                       : Forzados [CinemaniaHDD]
    Language                    : Spanish
    Default                     : Yes
    Forced                      : Yes

    Text #2
    ID                          : 5
    Format                      : UTF-8
    Codec ID                    : S_TEXT/UTF8
    Codec ID/Info               : UTF-8 Plain Text
    Duration                    : 1 h 42 min
    Bit rate                    : 47 b/s
    Count of elements           : 1083
    Stream size                 : 35.4 KiB (0%)
    Title                       : Español latino [CinemaniaHDD]
    Language                    : Spanish
    Default                     : No
    Forced                      : No

    Menu
    00:00:00.000                : :Chapter 1
    00:05:39.172                : :Chapter 2
    00:10:25.542                : :Chapter 3
    00:15:14.205                : :Chapter 4
    00:20:01.117                : :Chapter 5
    00:25:26.859                : :Chapter 6
    00:31:54.704                : :Chapter 7
    00:34:26.982                : :Chapter 8
    00:40:48.738                : :Chapter 9
    00:46:41.090                : :Chapter 10
    00:51:21.870                : :Chapter 11
    00:58:15.575                : :Chapter 12
    01:02:46.471                : :Chapter 13
    01:06:40.246                : :Chapter 14
    01:12:41.649                : :Chapter 15
    01:17:38.237                : :Chapter 16
    01:23:22.289                : :Chapter 17
    01:29:22.357                : :Chapter 18
    01:35:30.141                : :Chapter 19
    01:39:09.444                : :Chapter 20

     

  • Peso: 6.46 GiB

Sinopsis

El comandante Ronan Jackson (Devon Sawa) , un exitoso piloto de caza de las Fuerzas de Defensa Israelíes e hijo de un senador de los Estados Unidos (Robert Patrick), es «cazado» mientras sobrevuela el cielo de Siria.tras sobrevivir de forma milagrosa al accidente, un grupo de la Hezbollah decide hacerlo su prisionero.

Ficha técnica

Video trailer de la película

Enlaces de descarga

Rip de Bluray

Descargar Jarhead: Law of Return (2019) PLACEBO 1080p Latino




Aportes de DPeliculasHDmega la pass es:dpeliculashdmega.org Aportes de CinemaniaHD la pass es:cinemaniahdd.com

Películas relacionadas

descargar Jarhead: Law of Return (2019) PLACEBO 1080p Latino Full 1080p 1080p gratis, Jarhead: Law of Return (2019) PLACEBO 1080p Latino Full 1080p mega 1 link, Jarhead: Law of Return (2019) PLACEBO 1080p Latino Full 1080p pelicula completa, descargar Jarhead: Law of Return (2019) PLACEBO 1080p Latino Full 1080p gratis en mega.

Jarhead: Law of Return (2019) PLACEBO 1080p Latino pelicula full hd, Jarhead: Law of Return (2019) PLACEBO 1080p Latino mega latino, Jarhead: Law of Return (2019) PLACEBO 1080p Latino 4k latino, Jarhead: Law of Return (2019) PLACEBO 1080p Latino pelicula completa, Jarhead: Law of Return (2019) PLACEBO 1080p Latino descargar gratis, descargar Jarhead: Law of Return (2019) PLACEBO 1080p Latino pelicula latino, Jarhead: Law of Return (2019) PLACEBO 1080p Latino 1 link mega, Jarhead: Law of Return (2019) PLACEBO 1080p Latino 1 link google drive, Jarhead: Law of Return (2019) PLACEBO 1080p Latino hd 1080p latino.
Comentarios 0