×

¿Problemas para descargar con Mozilla, EDGE? Deshabilita la opción "Abrir vinculos en una pestaña nueva" tal como lo muestra ésta imagen.

Jackie Brown (1997) REMUX 1080p Latino

1.374 vistas

Información de Jackie Brown (1997) REMUX 1080p Latino

Datos de la película

  • Calidad: Full 1080p
  • Audio: Español Latino AC3 2.0 BLURAY - Ingles DTS 5.1 BLURAY
  • Subtitulos: Español Latino SRT- FORZADOS SRT
  • Resolución: 1920x1080
  • Formato: MKV
  • Codec: H.264
  • Encoder: cinemaniahdd
  • Mediainfo: Clic para Mostrar Datos Ver
  • Jackie Brown (1997) REMUX 1080p Latino.mkv
    Format                      : Matroska
    Format version              : Version 4
    File size                   : 28.1 GiB
    Duration                    : 2 h 34 min
    Overall bit rate mode       : Variable
    Overall bit rate            : 26.0 Mb/s
    Movie name                  : Jackie Brown (1997) - CinemaniaHDD.Net
    Encoded date                : UTC 2019-10-04 19:58:31
    Writing application         : mkvmerge v35.0.0 ('All The Love In The World') 64-bit
    Writing library             : libebml v1.3.9 + libmatroska v1.5.2

    Video
    ID                          : 1
    Format                      : AVC
    Format/Info                 : Advanced Video Codec
    Format profile              : High@L4.1
    Format settings             : CABAC / 4 Ref Frames
    Format settings, CABAC      : Yes
    Format settings, ReFrames   : 4 frames
    Codec ID                    : V_MPEG4/ISO/AVC
    Duration                    : 2 h 34 min
    Bit rate mode               : Variable
    Bit rate                    : 23.9 Mb/s
    Maximum bit rate            : 37.0 Mb/s
    Width                       : 1 920 pixels
    Height                      : 1 080 pixels
    Display aspect ratio        : 16:9
    Frame rate mode             : Constant
    Frame rate                  : 23.976 (24000/1001) FPS
    Color space                 : YUV
    Chroma subsampling          : 4:2:0
    Bit depth                   : 8 bits
    Scan type                   : Progressive
    Bits/(Pixel*Frame)          : 0.481
    Stream size                 : 25.8 GiB (92%)
    Title                       : CinemaniaHDD
    Default                     : Yes
    Forced                      : No

    Audio #1
    ID                          : 2
    Format                      : AC-3
    Format/Info                 : Audio Coding 3
    Commercial name             : Dolby Digital
    Codec ID                    : A_AC3
    Duration                    : 2 h 34 min
    Bit rate mode               : Constant
    Bit rate                    : 256 kb/s
    Channel(s)                  : 2 channels
    Channel layout              : L R
    Sampling rate               : 48.0 kHz
    Frame rate                  : 31.250 FPS (1536 SPF)
    Bit depth                   : 16 bits
    Compression mode            : Lossy
    Stream size                 : 283 MiB (1%)
    Title                       : Español latino [CinemaniaHDD]
    Language                    : Spanish
    Service kind                : Complete Main
    Default                     : Yes
    Forced                      : No

    Audio #2
    ID                          : 3
    Format                      : DTS XLL
    Format/Info                 : Digital Theater Systems
    Commercial name             : DTS-HD Master Audio
    Codec ID                    : A_DTS
    Duration                    : 2 h 34 min
    Bit rate mode               : Variable
    Bit rate                    : 1 864 kb/s
    Channel(s)                  : 6 channels
    Channel layout              : C L R Ls Rs LFE
    Sampling rate               : 48.0 kHz
    Frame rate                  : 93.750 FPS (512 SPF)
    Bit depth                   : 16 bits
    Compression mode            : Lossless
    Stream size                 : 2.01 GiB (7%)
    Title                       : Inglés [CinemaniaHDD]
    Language                    : English
    Default                     : No
    Forced                      : No

    Text #1
    ID                          : 4
    Format                      : UTF-8
    Codec ID                    : S_TEXT/UTF8
    Codec ID/Info               : UTF-8 Plain Text
    Duration                    : 2 h 28 min
    Bit rate                    : 1 b/s
    Count of elements           : 30
    Stream size                 : 1.18 KiB (0%)
    Title                       : Forzados [CinemaniaHDD]
    Language                    : Spanish
    Default                     : Yes
    Forced                      : Yes

    Text #2
    ID                          : 5
    Format                      : UTF-8
    Codec ID                    : S_TEXT/UTF8
    Codec ID/Info               : UTF-8 Plain Text
    Duration                    : 2 h 29 min
    Bit rate                    : 68 b/s
    Count of elements           : 1913
    Stream size                 : 75.7 KiB (0%)
    Title                       : Español latino [CinemaniaHDD]
    Language                    : Spanish
    Default                     : No
    Forced                      : No

    Text #3
    ID                          : 6
    Format                      : PGS
    Muxing mode                 : zlib
    Codec ID                    : S_HDMV/PGS
    Codec ID/Info               : Picture based subtitle format used on BDs/HD-DVDs
    Duration                    : 2 h 26 min
    Bit rate                    : 53.3 kb/s
    Count of elements           : 3860
    Stream size                 : 55.8 MiB (0%)
    Title                       : Inglés [CinemaniaHDD]
    Language                    : English
    Default                     : No
    Forced                      : No

    Menu
    00:00:00.000                : en:Opening Title Sequence
    00:10:32.131                : en:"Absolutely, Positively Got To Kill Every Mother Fucker In The Room..."
    00:23:35.664                : en:Beaumont And His Benefactor
    00:35:41.264                : en:"For Your Eyes Only"
    00:39:43.381                : en:Putting The Finger On Jackie Brown
    00:46:03.051                : en:"I Didn't Hear You Wash Your Hand"
    01:00:19.532                : en:Natural High
    01:13:09.343                : en:Click
    01:24:15.133                : en:Didn't I (Blow Your Mind This Time)
    01:31:27.231                : en:"She Wants To Make A Deal"
    01:38:46.587                : en:"You Getting High Already?"
    01:54:03.336                : en:"Two Minutes From The Crib; Ten Minutes From The Gig"
    02:06:02.972                : en:"She's My Fine Little Surfer Girl"
    02:18:26.131                : en:"Half A Million Dollars Will Always Be Missed"
    02:24:27.742                : en:Sheronda
    02:30:12.670                : en:Red Dress
    02:34:25.506                : en:Money Exchange: Jackie

     

  • Peso: 28.1 GiB

Sinopsis

Descargar Jackie Brown (1997) REMUX 1080p Latino, Jackie Brown (Pam Grier) es una azafata de vuelo que necesita dinero y hace de correo para Robbie, un mafioso buscado por la policía. Todo parece ir bien hasta que un día es sorprendida en la aduana y acusada de tráfico de drogas y evasión de capital. Sólo podrá evitar su ingreso en prisión, si acepta una propuesta de la policía: ayudarles a llegar hasta Robbie.

Ficha técnica

Video trailer de la película

Enlaces de descarga

Rip de Bluray

Descargar Jackie Brown (1997) REMUX 1080p Latino


Aportes de DPeliculasHDmega la pass es:dpeliculashdmega.org Aportes de CinemaniaHD la pass es:cinemaniahdd.com Aportes recientes:cinemaniahdd.net
Guardado en : Comedia , Crimen , Drama , Remux , Suspenso

Películas relacionadas

  • Naturaleza Humana (2022) REMUX 1080p Latino

    Naturaleza Humana (2022) REMUX 1080p Latino

    2022
    Naturaleza Humana (2022) REMUX 1080p Latino

    1h 31m 2022

    Descargar Naturaleza Humana (2022) REMUX 1080p Latino. Una historia sobre la mayoría de edad contada...

    Director: Louie Gibson

    Género: Drama

    Actores: Tim Heidecker

  • Pobres criaturas (2023) WEB-DL 4K UHD HDR Latino

    Pobres criaturas (2023) WEB-DL 4K UHD HDR Latino

    2023
    Pobres criaturas (2023) WEB-DL 4K UHD HDR Latino

    2h 21m 2023

    Descargar Pobres criaturas (2023) WEB-DL 4K UHD HDR Latino. Bella Baxter es una joven revivida por el...

    Director: Yorgos Lanthimos

    Género: 4K HDR

    Actores: Zen Joshua Poisson

  • Pobres criaturas (2023) WEB-DL 1080p Latino

    Pobres criaturas (2023) WEB-DL 1080p Latino

    2023
    Pobres criaturas (2023) WEB-DL 1080p Latino

    2h 21m 2023

    Descargar Pobres criaturas (2023) WEB-DL 1080p Latino. Bella Baxter es una joven revivida por el brillante...

    Director: Yorgos Lanthimos

    Género: Ciencia ficción

    Actores: Zen Joshua Poisson

  • Wonka (2023) Full HD 1080p Latino-CMHDD

    Wonka (2023) Full HD 1080p Latino-CMHDD

    2023
    Wonka (2023) Full HD 1080p Latino-CMHDD

    1h 57m 2023

    Descargar Wonka (2023) Full HD 1080p Latino-CMHDD. Basada en el personaje que protagoniza "Charlie y...

    Director: Zoe Morgan

    Género: Comedia

    Actores: Tracy Ifeachor

descargar Jackie Brown (1997) REMUX 1080p Latino Full 1080p 1080p gratis, Jackie Brown (1997) REMUX 1080p Latino Full 1080p mega 1 link, Jackie Brown (1997) REMUX 1080p Latino Full 1080p pelicula completa, descargar Jackie Brown (1997) REMUX 1080p Latino Full 1080p gratis en mega.

Jackie Brown (1997) REMUX 1080p Latino pelicula full hd, Jackie Brown (1997) REMUX 1080p Latino mega latino, Jackie Brown (1997) REMUX 1080p Latino 4k latino, Jackie Brown (1997) REMUX 1080p Latino pelicula completa, Jackie Brown (1997) REMUX 1080p Latino descargar gratis, descargar Jackie Brown (1997) REMUX 1080p Latino pelicula latino, Jackie Brown (1997) REMUX 1080p Latino 1 link mega, Jackie Brown (1997) REMUX 1080p Latino 1 link google drive, Jackie Brown (1997) REMUX 1080p Latino hd 1080p latino.
Comentarios 0