×

¿Problemas para descargar con Mozilla, EDGE? Deshabilita la opción "Abrir vinculos en una pestaña nueva" tal como lo muestra ésta imagen.

Jackie Brown (1997) PLACEBO 1080p Latino

1.519 vistas

Información de Jackie Brown (1997) PLACEBO 1080p Latino

Datos de la película

  • Calidad: Full 1080p
  • Audio: Español Latino AC3 2.0 BLURAY - Ingles AC3 5.1 BLURAY
  • Subtitulos: Español Latino SRT- FORZADOS SRT
  • Resolución: 1920x1080
  • Formato: MKV
  • Codec: H.264
  • Encoder: cinemaniahdd
  • Mediainfo: Clic para Mostrar Datos Ver
  • Jackie Brown (1997) PLACEBO 1080p Latino.mkv
    Format                      : Matroska
    Format version              : Version 4
    File size                   : 10.0 GiB
    Duration                    : 2 h 34 min
    Overall bit rate            : 9 306 kb/s
    Movie name                  : Jackie Brown (1997) - CinemaniaHDD.Net
    Encoded date                : UTC 2019-10-04 19:55:25
    Writing application         : mkvmerge v35.0.0 ('All The Love In The World') 64-bit
    Writing library             : libebml v1.3.9 + libmatroska v1.5.2

    Video
    ID                          : 1
    Format                      : AVC
    Format/Info                 : Advanced Video Codec
    Format profile              : High@L4.1
    Format settings             : CABAC / 4 Ref Frames
    Format settings, CABAC      : Yes
    Format settings, ReFrames   : 4 frames
    Codec ID                    : V_MPEG4/ISO/AVC
    Duration                    : 2 h 34 min
    Bit rate                    : 8 391 kb/s
    Width                       : 1 920 pixels
    Height                      : 1 080 pixels
    Display aspect ratio        : 16:9
    Frame rate mode             : Constant
    Frame rate                  : 23.976 (24000/1001) FPS
    Color space                 : YUV
    Chroma subsampling          : 4:2:0
    Bit depth                   : 8 bits
    Scan type                   : Progressive
    Bits/(Pixel*Frame)          : 0.169
    Stream size                 : 9.05 GiB (90%)
    Title                       : CinemaniaHDD
    Writing library             : x264 core 157 r2935 545de2f
    Encoding settings           : cabac=1 / ref=4 / deblock=1:0:0 / analyse=0x3:0x133 / me=tesa / subme=11 / psy=1 / psy_rd=1.00:0.00 / mixed_ref=1 / me_range=24 / chroma_me=1 / trellis=2 / 8x8dct=1 / cqm=0 / deadzone=21,11 / fast_pskip=0 / chroma_qp_offset=-2 / threads=34 / lookahead_threads=8 / sliced_threads=0 / nr=0 / decimate=1 / interlaced=0 / bluray_compat=0 / constrained_intra=0 / bframes=16 / b_pyramid=2 / b_adapt=2 / b_bias=0 / direct=3 / weightb=1 / open_gop=0 / weightp=2 / keyint=240 / keyint_min=24 / scenecut=40 / intra_refresh=0 / rc_lookahead=60 / rc=crf / mbtree=1 / crf=20.0 / qcomp=0.60 / qpmin=0 / qpmax=69 / qpstep=4 / vbv_maxrate=62500 / vbv_bufsize=78125 / crf_max=0.0 / nal_hrd=none / filler=0 / ip_ratio=1.40 / aq=1:1.00
    Default                     : Yes
    Forced                      : No
    Color range                 : Limited
    Color primaries             : BT.709
    Transfer characteristics    : BT.709
    Matrix coefficients         : BT.709

    Audio #1
    ID                          : 2
    Format                      : AC-3
    Format/Info                 : Audio Coding 3
    Commercial name             : Dolby Digital
    Codec ID                    : A_AC3
    Duration                    : 2 h 34 min
    Bit rate mode               : Constant
    Bit rate                    : 256 kb/s
    Channel(s)                  : 2 channels
    Channel layout              : L R
    Sampling rate               : 48.0 kHz
    Frame rate                  : 31.250 FPS (1536 SPF)
    Bit depth                   : 16 bits
    Compression mode            : Lossy
    Delay relative to video     : -5 ms
    Stream size                 : 283 MiB (3%)
    Title                       : Español latino [CinemaniaHDD]
    Language                    : Spanish
    Service kind                : Complete Main
    Default                     : Yes
    Forced                      : No

    Audio #2
    ID                          : 3
    Format                      : AC-3
    Format/Info                 : Audio Coding 3
    Commercial name             : Dolby Digital
    Codec ID                    : A_AC3
    Duration                    : 2 h 34 min
    Bit rate mode               : Constant
    Bit rate                    : 640 kb/s
    Channel(s)                  : 6 channels
    Channel layout              : L R C LFE Ls Rs
    Sampling rate               : 48.0 kHz
    Frame rate                  : 31.250 FPS (1536 SPF)
    Bit depth                   : 16 bits
    Compression mode            : Lossy
    Delay relative to video     : -5 ms
    Stream size                 : 707 MiB (7%)
    Title                       : Inglés [CinemaniaHDD]
    Language                    : English
    Service kind                : Complete Main
    Default                     : No
    Forced                      : No

    Text #1
    ID                          : 4
    Format                      : UTF-8
    Codec ID                    : S_TEXT/UTF8
    Codec ID/Info               : UTF-8 Plain Text
    Duration                    : 2 h 28 min
    Bit rate                    : 1 b/s
    Count of elements           : 30
    Stream size                 : 1.18 KiB (0%)
    Title                       : Forzados [CinemaniaHDD]
    Language                    : Spanish
    Default                     : Yes
    Forced                      : Yes

    Text #2
    ID                          : 5
    Format                      : UTF-8
    Codec ID                    : S_TEXT/UTF8
    Codec ID/Info               : UTF-8 Plain Text
    Duration                    : 2 h 29 min
    Bit rate                    : 68 b/s
    Count of elements           : 1913
    Stream size                 : 75.7 KiB (0%)
    Title                       : Español latino [CinemaniaHDD]
    Language                    : Spanish
    Default                     : No
    Forced                      : No

    Text #3
    ID                          : 6
    Format                      : PGS
    Muxing mode                 : zlib
    Codec ID                    : S_HDMV/PGS
    Codec ID/Info               : Picture based subtitle format used on BDs/HD-DVDs
    Duration                    : 2 h 26 min
    Bit rate                    : 53.3 kb/s
    Count of elements           : 3860
    Stream size                 : 55.8 MiB (1%)
    Title                       : Inglés [CinemaniaHDD]
    Language                    : English
    Default                     : No
    Forced                      : No

    Menu
    00:00:00.000                : :Opening Title Sequence
    00:10:32.132                : :"Absolutely, Positively Got To Kill Every Mother Fucker In The Room..."
    00:23:35.664                : :Beaumont And His Benefactor
    00:35:41.264                : :"For Your Eyes Only"
    00:39:43.381                : :Putting The Finger On Jackie Brown
    00:46:03.052                : :"I Didn't Hear You Wash Your Hand"
    01:00:19.533                : :Natural High
    01:13:09.343                : :Click
    01:24:15.133                : :Didn't I (Blow Your Mind This Time)
    01:31:27.232                : :"She Wants To Make A Deal"
    01:38:46.587                : :"You Getting High Already?"
    01:54:03.337                : :"Two Minutes From The Crib; Ten Minutes From The Gig"
    02:06:02.972                : :"She's My Fine Little Surfer Girl"
    02:18:26.131                : :"Half A Million Dollars Will Always Be Missed"
    02:24:27.742                : :Sheronda
    02:30:12.670                : :Red Dress

     

  • Peso: 10.0 GiB

Sinopsis

Descargar Jackie Brown (1997) PLACEBO 1080p Latino, Jackie Brown (Pam Grier) es una azafata de vuelo que necesita dinero y hace de correo para Robbie, un mafioso buscado por la policía. Todo parece ir bien hasta que un día es sorprendida en la aduana y acusada de tráfico de drogas y evasión de capital. Sólo podrá evitar su ingreso en prisión, si acepta una propuesta de la policía: ayudarles a llegar hasta Robbie.

Ficha técnica

Video trailer de la película

Enlaces de descarga

Rip de Bluray

Descargar Jackie Brown (1997) PLACEBO 1080p Latino




Aportes de DPeliculasHDmega la pass es:dpeliculashdmega.org Aportes de CinemaniaHD la pass es:cinemaniahdd.com

Películas relacionadas

descargar Jackie Brown (1997) PLACEBO 1080p Latino Full 1080p 1080p gratis, Jackie Brown (1997) PLACEBO 1080p Latino Full 1080p mega 1 link, Jackie Brown (1997) PLACEBO 1080p Latino Full 1080p pelicula completa, descargar Jackie Brown (1997) PLACEBO 1080p Latino Full 1080p gratis en mega.

Jackie Brown (1997) PLACEBO 1080p Latino pelicula full hd, Jackie Brown (1997) PLACEBO 1080p Latino mega latino, Jackie Brown (1997) PLACEBO 1080p Latino 4k latino, Jackie Brown (1997) PLACEBO 1080p Latino pelicula completa, Jackie Brown (1997) PLACEBO 1080p Latino descargar gratis, descargar Jackie Brown (1997) PLACEBO 1080p Latino pelicula latino, Jackie Brown (1997) PLACEBO 1080p Latino 1 link mega, Jackie Brown (1997) PLACEBO 1080p Latino 1 link google drive, Jackie Brown (1997) PLACEBO 1080p Latino hd 1080p latino.
Comentarios 2
  • Pablo Luna - 10 diciembre, 2021

    Muchas GRACIAS AMIGOS, se pasaron!!!

  • Josue - 22 mayo, 2021

    Gracias por la pelicula