×

¿Problemas para descargar con Mozilla, EDGE? Deshabilita la opción "Abrir vinculos en una pestaña nueva" tal como lo muestra ésta imagen.

Jackass Por Siempre (2022) REMUX 1080p Latino

156 vistas

Información de Jackass Por Siempre (2022) REMUX 1080p Latino

Datos de la película

  • Calidad: Full 1080p
  • Audio: Español Latino AC3 5.1 BLURAY - Ingles DTS 5.1 BLURAY
  • Subtitulos: Español Latino PGS - Ingles PGS
  • Resolución: 1920x1080p
  • Formato: MKV
  • Codec: H.264
  • Encoder: Melkor
  • Mediainfo: Clic para Mostrar Datos Ver
  • Jackass Por Siempre (2022) REMUX 1080p Latino.mkv
    Format                      : Matroska
    Format version              : Version 4
    File size                   : 25.4 GiB
    Duration                    : 1 h 36 min
    Overall bit rate mode       : Variable
    Overall bit rate            : 37.9 Mb/s
    Movie name                  : Jackass Forever (2022) CinemaniaHDD.Net
    Encoded date                : UTC 2022-04-17 00:15:55
    Writing application         : mkvmerge v56.1.0 ('My Friend') 64-bit
    Writing library             : libebml v1.4.2 + libmatroska v1.6.4
    Attachments                 : CINEMANIAHD.png

    Video
    ID                          : 1
    ID in the original source m : 4113 (0x1011)
    Format                      : AVC
    Format/Info                 : Advanced Video Codec
    Format profile              : High@L4.1
    Format settings             : CABAC / 4 Ref Frames
    Format settings, CABAC      : Yes
    Format settings, Reference  : 4 frames
    Codec ID                    : V_MPEG4/ISO/AVC
    Duration                    : 1 h 36 min
    Bit rate mode               : Variable
    Bit rate                    : 33.5 Mb/s
    Maximum bit rate            : 36.5 Mb/s
    Width                       : 1 920 pixels
    Height                      : 1 080 pixels
    Display aspect ratio        : 16:9
    Frame rate mode             : Constant
    Frame rate                  : 23.976 (24000/1001) FPS
    Color space                 : YUV
    Chroma subsampling          : 4:2:0
    Bit depth                   : 8 bits
    Scan type                   : Progressive
    Bits/(Pixel*Frame)          : 0.673
    Stream size                 : 22.4 GiB (88%)
    Title                       : REMUX HD1080p [CinemaniaHDD]
    Default                     : Yes
    Forced                      : Yes
    Original source medium      : Blu-ray

    Audio #1
    ID                          : 2
    ID in the original source m : 4355 (0x1103)
    Format                      : AC-3
    Format/Info                 : Audio Coding 3
    Commercial name             : Dolby Digital
    Codec ID                    : A_AC3
    Duration                    : 1 h 36 min
    Bit rate mode               : Constant
    Bit rate                    : 640 kb/s
    Channel(s)                  : 6 channels
    Channel layout              : L R C LFE Ls Rs
    Sampling rate               : 48.0 kHz
    Frame rate                  : 31.250 FPS (1536 SPF)
    Compression mode            : Lossy
    Stream size                 : 440 MiB (2%)
    Title                       : Español Latino [CinemaniaHDD]
    Language                    : Spanish
    Service kind                : Complete Main
    Default                     : Yes
    Forced                      : Yes
    Original source medium      : Blu-ray

    Audio #2
    ID                          : 3
    ID in the original source m : 4352 (0x1100)
    Format                      : DTS XLL
    Format/Info                 : Digital Theater Systems
    Commercial name             : DTS-HD Master Audio
    Codec ID                    : A_DTS
    Duration                    : 1 h 36 min
    Bit rate mode               : Variable
    Bit rate                    : 3 818 kb/s
    Channel(s)                  : 6 channels
    Channel layout              : C L R Ls Rs LFE
    Sampling rate               : 48.0 kHz
    Frame rate                  : 93.750 FPS (512 SPF)
    Bit depth                   : 24 bits
    Compression mode            : Lossless
    Stream size                 : 2.56 GiB (10%)
    Title                       : Ingles [CinemaniaHDD]
    Language                    : English
    Default                     : No
    Forced                      : No
    Original source medium      : Blu-ray

    Text #1
    ID                          : 4
    ID in the original source m : 4612 (0x1204)
    Format                      : PGS
    Muxing mode                 : zlib
    Codec ID                    : S_HDMV/PGS
    Codec ID/Info               : Picture based subtitle format used on BDs/HD-DVDs
    Duration                    : 1 h 35 min
    Bit rate                    : 36.1 kb/s
    Count of elements           : 2870
    Stream size                 : 24.6 MiB (0%)
    Title                       : Español-PGS [CinemaniaHDD]
    Language                    : Spanish
    Default                     : No
    Forced                      : No
    Original source medium      : Blu-ray

    Text #2
    ID                          : 5
    ID in the original source m : 4608 (0x1200)
    Format                      : PGS
    Muxing mode                 : zlib
    Codec ID                    : S_HDMV/PGS
    Codec ID/Info               : Picture based subtitle format used on BDs/HD-DVDs
    Duration                    : 1 h 33 min
    Bit rate                    : 42.0 kb/s
    Count of elements           : 2844
    Stream size                 : 28.1 MiB (0%)
    Title                       : Ingles-PGS [CinemaniaHDD]
    Language                    : English
    Default                     : No
    Forced                      : No
    Original source medium      : Blu-ray

    Text #3
    ID                          : 6
    Format                      : UTF-8
    Codec ID                    : S_TEXT/UTF8
    Codec ID/Info               : UTF-8 Plain Text
    Duration                    : 1 h 34 min
    Bit rate                    : 1 b/s
    Count of elements           : 22
    Stream size                 : 721 Bytes (0%)
    Title                       : Forzados-SRT [CinemaniaHDD]
    Language                    : Spanish
    Default                     : Yes
    Forced                      : Yes

    Text #4
    ID                          : 7
    Format                      : UTF-8
    Codec ID                    : S_TEXT/UTF8
    Codec ID/Info               : UTF-8 Plain Text
    Duration                    : 1 h 34 min
    Bit rate                    : 59 b/s
    Count of elements           : 1432
    Stream size                 : 41.5 KiB (0%)
    Title                       : Español-SRT [CinemaniaHDD]
    Language                    : Spanish
    Default                     : No
    Forced                      : No

    Menu
    00:00:00.000                : Chapter 01
    00:06:19.379                : Chapter 02
    00:09:14.470                : Chapter 03
    00:12:42.595                : Chapter 04
    00:13:17.087                : Chapter 05
    00:19:29.251                : Chapter 06
    00:21:40.882                : Chapter 07
    00:24:27.966                : Chapter 08
    00:26:10.110                : Chapter 09
    00:28:14.984                : Chapter 10
    00:29:52.499                : Chapter 11
    00:30:15.814                : Chapter 12
    00:33:39.851                : Chapter 13
    00:34:20.850                : Chapter 14
    00:40:18.624                : Chapter 15
    00:41:25.691                : Chapter 16
    00:44:08.437                : Chapter 17
    00:44:39.802                : Chapter 18
    00:48:51.929                : Chapter 19
    00:50:06.169                : Chapter 20
    00:51:53.401                : Chapter 21
    00:53:14.983                : Chapter 22
    00:54:16.711                : Chapter 23
    00:55:47.135                : Chapter 24
    00:58:35.178                : Chapter 25
    00:59:38.533                : Chapter 26
    01:01:53.376                : Chapter 27
    01:02:54.353                : Chapter 28
    01:04:23.067                : Chapter 29
    01:04:36.330                : Chapter 30
    01:08:49.166                : Chapter 31
    01:09:47.808                : Chapter 32
    01:12:25.924                : Chapter 33
    01:14:12.406                : Chapter 34
    01:17:44.242                : Chapter 35
    01:19:02.946                : Chapter 36
    01:21:35.765                : Chapter 37
    01:26:20.717                : Chapter 38

  • Peso: 25.4 GiB

Sinopsis

Descargar Jackass Por Siempre (2022) REMUX 1080p Latino. Celebre la alegría de un tiro perfectamente ejecutado en la ingle cuando Johnny Knoxville, Steve-O y el resto de la pandilla regresan junto con algunos recién llegados para una ronda final de exhibiciones de acrobacias y comedia hilarantes, tremendamente absurdas y, a menudo, peligrosas.

Ficha técnica

Video trailer de la película

Enlaces de descarga

Rip de Bluray

Descargar Jackass Por Siempre (2022) REMUX 1080p Latino




Aportes de DPeliculasHDmega la pass es:dpeliculashdmega.org Aportes de CinemaniaHD la pass es:cinemaniahdd.com
Guardado en : Acción , Comedia , Documental , Remux

Películas relacionadas

  • DC Liga De Supermascotas (2022) HD 1080p Latino

    DC Liga De Supermascotas (2022) HD 1080p Latino

    2022
    DC Liga De Supermascotas (2022) HD 1080p Latino

    1h 45m 2022

    Descargar DC Liga De Supermascotas (2022) HD 1080p Latino. Krypto el Superperro y Superman son amigos...

    Director: Sam Levine

    Género: Acción

    Actores: Yvette Nicole Brown

  • Rick and Morty (2022) Temporada 6 WEB-DL 1080p Latino

    Rick and Morty (2022) Temporada 6 WEB-DL 1080p Latino

    2013
    Rick and Morty (2022) Temporada 6 WEB-DL 1080p Latino

    0h 22m 2013

    Comedia animada que narra las aventuras de un científico loco Rick Sánchez, que regresa después de...

    Director: Justin Roiland

    Género: Action & Adventure

    Actores: Spencer Grammer

  • Tremors (1990) REMUX 4K HDR Latino – CMHDD

    Tremors (1990) REMUX 4K HDR Latino – CMHDD

    1990
    Tremors (1990) REMUX 4K HDR Latino – CMHDD

    1h 35m 1990

    En Perfección, un pequeño pueblo al borde del desierto de Nevada, algo parece suceder debajo de la...

    Director: Susan Bierbaum

    Género: Acción

    Actores: Victor Wong

descargar Jackass Por Siempre (2022) REMUX 1080p Latino Full 1080p 1080p gratis, Jackass Por Siempre (2022) REMUX 1080p Latino Full 1080p mega 1 link, Jackass Por Siempre (2022) REMUX 1080p Latino Full 1080p pelicula completa, descargar Jackass Por Siempre (2022) REMUX 1080p Latino Full 1080p gratis en mega.

Jackass Por Siempre (2022) REMUX 1080p Latino pelicula full hd, Jackass Por Siempre (2022) REMUX 1080p Latino mega latino, Jackass Por Siempre (2022) REMUX 1080p Latino 4k latino, Jackass Por Siempre (2022) REMUX 1080p Latino pelicula completa, Jackass Por Siempre (2022) REMUX 1080p Latino descargar gratis, descargar Jackass Por Siempre (2022) REMUX 1080p Latino pelicula latino, Jackass Por Siempre (2022) REMUX 1080p Latino 1 link mega, Jackass Por Siempre (2022) REMUX 1080p Latino 1 link google drive, Jackass Por Siempre (2022) REMUX 1080p Latino hd 1080p latino.
Comentarios 0