×

¿Problemas para descargar con Mozilla, EDGE? Deshabilita la opción "Abrir vinculos en una pestaña nueva" tal como lo muestra ésta imagen.

Jackass Por Siempre (2022) PLACEBO Full HD 1080p Latino

589 vistas

Información de Jackass Por Siempre (2022) PLACEBO Full HD 1080p Latino

Datos de la película

  • Calidad: Full 1080p
  • Audio: Español Latino AC3 5.1 BLURAY - Ingles DTS 5.1 BLURAY
  • Subtitulos: Español Latino PGS - Ingles PGS
  • Resolución: 1920x1080p
  • Formato: MKV
  • Codec: H.264
  • Encoder: Melkor
  • Mediainfo: Clic para Mostrar Datos Ver
  • Jackass Por Siempre (2022) PLACEBO 1080p Latino.mkv
    Format                      : Matroska
    Format version              : Version 4
    File size                   : 9.20 GiB
    Duration                    : 1 h 36 min
    Overall bit rate            : 13.7 Mb/s
    Movie name                  : Jackass Forever (2022) CinemaniaHDD.Net
    Encoded date                : UTC 2022-04-17 00:25:39
    Writing application         : mkvmerge v56.1.0 ('My Friend') 64-bit
    Writing library             : libebml v1.4.2 + libmatroska v1.6.4
    Attachments                 : CINEMANIAHD.png

    Video
    ID                          : 1
    Format                      : AVC
    Format/Info                 : Advanced Video Codec
    Format profile              : High@L4.1
    Format settings             : CABAC / 4 Ref Frames
    Format settings, CABAC      : Yes
    Format settings, Reference  : 4 frames
    Codec ID                    : V_MPEG4/ISO/AVC
    Duration                    : 1 h 36 min
    Bit rate                    : 11.5 Mb/s
    Width                       : 1 920 pixels
    Height                      : 1 080 pixels
    Display aspect ratio        : 16:9
    Frame rate mode             : Constant
    Frame rate                  : 23.976 (24000/1001) FPS
    Color space                 : YUV
    Chroma subsampling          : 4:2:0
    Bit depth                   : 8 bits
    Scan type                   : Progressive
    Bits/(Pixel*Frame)          : 0.232
    Stream size                 : 7.74 GiB (84%)
    Title                       : Full HD1080p [CinemaniaHDD]
    Writing library             : x264 core 163 r3059 b684ebe0
    Encoding settings           : cabac=1 / ref=4 / deblock=1:0:0 / analyse=0x3:0x133 / me=tesa / subme=11 / psy=1 / psy_rd=1.00:0.00 / mixed_ref=1 / me_range=24 / chroma_me=1 / trellis=2 / 8x8dct=1 / cqm=0 / deadzone=21,11 / fast_pskip=0 / chroma_qp_offset=-2 / threads=24 / lookahead_threads=6 / sliced_threads=0 / nr=0 / decimate=1 / interlaced=0 / bluray_compat=0 / constrained_intra=0 / bframes=16 / b_pyramid=2 / b_adapt=2 / b_bias=0 / direct=3 / weightb=1 / open_gop=0 / weightp=2 / keyint=240 / keyint_min=24 / scenecut=40 / intra_refresh=0 / rc_lookahead=60 / rc=crf / mbtree=1 / crf=19.0 / qcomp=0.60 / qpmin=0 / qpmax=69 / qpstep=4 / vbv_maxrate=62500 / vbv_bufsize=78125 / crf_max=0.0 / nal_hrd=none / filler=0 / ip_ratio=1.40 / aq=1:1.00
    Default                     : Yes
    Forced                      : Yes
    Color range                 : Limited
    Color primaries             : BT.709
    Transfer characteristics    : BT.709
    Matrix coefficients         : BT.709

    Audio #1
    ID                          : 2
    ID in the original source m : 4355 (0x1103)
    Format                      : AC-3
    Format/Info                 : Audio Coding 3
    Commercial name             : Dolby Digital
    Codec ID                    : A_AC3
    Duration                    : 1 h 36 min
    Bit rate mode               : Constant
    Bit rate                    : 640 kb/s
    Channel(s)                  : 6 channels
    Channel layout              : L R C LFE Ls Rs
    Sampling rate               : 48.0 kHz
    Frame rate                  : 31.250 FPS (1536 SPF)
    Compression mode            : Lossy
    Stream size                 : 440 MiB (5%)
    Title                       : Español Latino [CinemaniaHDD]
    Language                    : Spanish
    Service kind                : Complete Main
    Default                     : Yes
    Forced                      : Yes
    Original source medium      : Blu-ray

    Audio #2
    ID                          : 3
    Format                      : DTS
    Format/Info                 : Digital Theater Systems
    Codec ID                    : A_DTS
    Duration                    : 1 h 36 min
    Bit rate mode               : Constant
    Bit rate                    : 1 509 kb/s
    Channel(s)                  : 6 channels
    Channel layout              : C L R Ls Rs LFE
    Sampling rate               : 48.0 kHz
    Frame rate                  : 93.750 FPS (512 SPF)
    Bit depth                   : 24 bits
    Compression mode            : Lossy
    Stream size                 : 1.01 GiB (11%)
    Title                       : Ingles [CinemaniaHDD]
    Language                    : English
    Default                     : No
    Forced                      : No

    Text #1
    ID                          : 4
    ID in the original source m : 4612 (0x1204)
    Format                      : PGS
    Muxing mode                 : zlib
    Codec ID                    : S_HDMV/PGS
    Codec ID/Info               : Picture based subtitle format used on BDs/HD-DVDs
    Duration                    : 1 h 35 min
    Bit rate                    : 36.1 kb/s
    Count of elements           : 2870
    Stream size                 : 24.6 MiB (0%)
    Title                       : Español-PGS [CinemaniaHDD]
    Language                    : Spanish
    Default                     : No
    Forced                      : No
    Original source medium      : Blu-ray

    Text #2
    ID                          : 5
    ID in the original source m : 4608 (0x1200)
    Format                      : PGS
    Muxing mode                 : zlib
    Codec ID                    : S_HDMV/PGS
    Codec ID/Info               : Picture based subtitle format used on BDs/HD-DVDs
    Duration                    : 1 h 33 min
    Bit rate                    : 42.0 kb/s
    Count of elements           : 2844
    Stream size                 : 28.1 MiB (0%)
    Title                       : Ingles-PGS [CinemaniaHDD]
    Language                    : English
    Default                     : No
    Forced                      : No
    Original source medium      : Blu-ray

    Text #3
    ID                          : 6
    Format                      : UTF-8
    Codec ID                    : S_TEXT/UTF8
    Codec ID/Info               : UTF-8 Plain Text
    Duration                    : 1 h 34 min
    Bit rate                    : 1 b/s
    Count of elements           : 22
    Stream size                 : 721 Bytes (0%)
    Title                       : Forzados-SRT [CinemaniaHDD]
    Language                    : Spanish
    Default                     : Yes
    Forced                      : Yes

    Text #4
    ID                          : 7
    Format                      : UTF-8
    Codec ID                    : S_TEXT/UTF8
    Codec ID/Info               : UTF-8 Plain Text
    Duration                    : 1 h 34 min
    Bit rate                    : 59 b/s
    Count of elements           : 1432
    Stream size                 : 41.5 KiB (0%)
    Title                       : Español-SRT [CinemaniaHDD]
    Language                    : Spanish
    Default                     : No
    Forced                      : No

    Menu
    00:00:00.000                : Chapter 01
    00:06:19.379                : Chapter 02
    00:09:14.470                : Chapter 03
    00:12:42.595                : Chapter 04
    00:13:17.087                : Chapter 05
    00:19:29.251                : Chapter 06
    00:21:40.882                : Chapter 07
    00:24:27.966                : Chapter 08
    00:26:10.110                : Chapter 09
    00:28:14.984                : Chapter 10
    00:29:52.499                : Chapter 11
    00:30:15.814                : Chapter 12
    00:33:39.851                : Chapter 13
    00:34:20.850                : Chapter 14
    00:40:18.624                : Chapter 15
    00:41:25.691                : Chapter 16
    00:44:08.437                : Chapter 17
    00:44:39.802                : Chapter 18
    00:48:51.929                : Chapter 19
    00:50:06.169                : Chapter 20
    00:51:53.401                : Chapter 21
    00:53:14.983                : Chapter 22
    00:54:16.711                : Chapter 23
    00:55:47.135                : Chapter 24
    00:58:35.178                : Chapter 25
    00:59:38.533                : Chapter 26
    01:01:53.376                : Chapter 27
    01:02:54.353                : Chapter 28
    01:04:23.067                : Chapter 29
    01:04:36.330                : Chapter 30
    01:08:49.166                : Chapter 31
    01:09:47.808                : Chapter 32
    01:12:25.924                : Chapter 33
    01:14:12.406                : Chapter 34
    01:17:44.242                : Chapter 35
    01:19:02.946                : Chapter 36
    01:21:35.765                : Chapter 37
    01:26:20.717                : Chapter 38

  • Peso: 9.20 GiB

Sinopsis

Descargar Jackass Por Siempre (2022) PLACEBO Full HD 1080p Latino. Celebre la alegría de un tiro perfectamente ejecutado en la ingle cuando Johnny Knoxville, Steve-O y el resto de la pandilla regresan junto con algunos recién llegados para una ronda final de exhibiciones de acrobacias y comedia hilarantes, tremendamente absurdas y, a menudo, peligrosas.

Ficha técnica

Video trailer de la película

Enlaces de descarga

Rip de Bluray

Descargar Jackass Por Siempre (2022) PLACEBO Full HD 1080p Latino




Aportes de DPeliculasHDmega la pass es:dpeliculashdmega.org Aportes de CinemaniaHD la pass es:cinemaniahdd.com

Películas relacionadas

descargar Jackass Por Siempre (2022) PLACEBO Full HD 1080p Latino Full 1080p 1080p gratis, Jackass Por Siempre (2022) PLACEBO Full HD 1080p Latino Full 1080p mega 1 link, Jackass Por Siempre (2022) PLACEBO Full HD 1080p Latino Full 1080p pelicula completa, descargar Jackass Por Siempre (2022) PLACEBO Full HD 1080p Latino Full 1080p gratis en mega.

Jackass Por Siempre (2022) PLACEBO Full HD 1080p Latino pelicula full hd, Jackass Por Siempre (2022) PLACEBO Full HD 1080p Latino mega latino, Jackass Por Siempre (2022) PLACEBO Full HD 1080p Latino 4k latino, Jackass Por Siempre (2022) PLACEBO Full HD 1080p Latino pelicula completa, Jackass Por Siempre (2022) PLACEBO Full HD 1080p Latino descargar gratis, descargar Jackass Por Siempre (2022) PLACEBO Full HD 1080p Latino pelicula latino, Jackass Por Siempre (2022) PLACEBO Full HD 1080p Latino 1 link mega, Jackass Por Siempre (2022) PLACEBO Full HD 1080p Latino 1 link google drive, Jackass Por Siempre (2022) PLACEBO Full HD 1080p Latino hd 1080p latino.
Comentarios 0