×

¿Problemas para descargar con Mozilla, EDGE? Deshabilita la opción "Abrir vinculos en una pestaña nueva" tal como lo muestra ésta imagen.

Jackass Por Siempre (2022) HD 1080p Latino

842 vistas

Información de Jackass Por Siempre (2022) HD 1080p Latino

Datos de la película

  • Calidad: 1080p
  • Audio: Español Latino AC3 5.1 BLURAY - Ingles AC3 5.1 BLURAY
  • Subtitulos: Español Latino SRT- FORZADOS SRT
  • Resolución: 1920x1080p
  • Formato: MKV
  • Codec: H.264
  • Encoder: Melkor
  • Mediainfo: Clic para Mostrar Datos Ver
  • Jackass Por Siempre (2022) HD 1080p Latino.mkv
    Format                      : Matroska
    Format version              : Version 4
    File size                   : 3.09 GiB
    Duration                    : 1 h 36 min
    Overall bit rate            : 4 602 kb/s
    Movie name                  : Jackass Forever (2022) CinemaniaHDD.Net
    Encoded date                : UTC 2022-04-17 00:27:30
    Writing application         : mkvmerge v56.1.0 ('My Friend') 64-bit
    Writing library             : libebml v1.4.2 + libmatroska v1.6.4
    Attachments                 : CINEMANIAHD.png

    Video
    ID                          : 1
    Format                      : AVC
    Format/Info                 : Advanced Video Codec
    Format profile              : High@L4.1
    Format settings             : CABAC / 4 Ref Frames
    Format settings, CABAC      : Yes
    Format settings, Reference  : 4 frames
    Codec ID                    : V_MPEG4/ISO/AVC
    Duration                    : 1 h 36 min
    Bit rate                    : 3 500 kb/s
    Width                       : 1 920 pixels
    Height                      : 1 080 pixels
    Display aspect ratio        : 16:9
    Frame rate mode             : Constant
    Frame rate                  : 23.976 (24000/1001) FPS
    Color space                 : YUV
    Chroma subsampling          : 4:2:0
    Bit depth                   : 8 bits
    Scan type                   : Progressive
    Bits/(Pixel*Frame)          : 0.070
    Stream size                 : 2.36 GiB (76%)
    Title                       : HD1080p [CinemaniaHDD]
    Writing library             : x264 core 163 r3059 b684ebe0
    Encoding settings           : cabac=1 / ref=4 / deblock=1:-1:-1 / analyse=0x3:0x133 / me=umh / subme=9 / psy=1 / psy_rd=1.00:0.15 / mixed_ref=1 / me_range=16 / chroma_me=1 / trellis=2 / 8x8dct=1 / cqm=0 / deadzone=21,11 / fast_pskip=1 / chroma_qp_offset=-3 / threads=24 / lookahead_threads=2 / sliced_threads=0 / nr=0 / decimate=1 / interlaced=0 / bluray_compat=0 / constrained_intra=0 / bframes=3 / b_pyramid=2 / b_adapt=2 / b_bias=0 / direct=3 / weightb=1 / open_gop=0 / weightp=2 / keyint=240 / keyint_min=24 / scenecut=40 / intra_refresh=0 / rc_lookahead=60 / rc=abr / mbtree=1 / bitrate=3500 / ratetol=1.0 / qcomp=0.60 / qpmin=0 / qpmax=69 / qpstep=4 / vbv_maxrate=62500 / vbv_bufsize=78125 / nal_hrd=none / filler=0 / ip_ratio=1.40 / aq=1:1.00
    Default                     : Yes
    Forced                      : Yes
    Color range                 : Limited
    Color primaries             : BT.709
    Transfer characteristics    : BT.709
    Matrix coefficients         : BT.709

    Audio #1
    ID                          : 2
    ID in the original source m : 4355 (0x1103)
    Format                      : AC-3
    Format/Info                 : Audio Coding 3
    Commercial name             : Dolby Digital
    Codec ID                    : A_AC3
    Duration                    : 1 h 36 min
    Bit rate mode               : Constant
    Bit rate                    : 640 kb/s
    Channel(s)                  : 6 channels
    Channel layout              : L R C LFE Ls Rs
    Sampling rate               : 48.0 kHz
    Frame rate                  : 31.250 FPS (1536 SPF)
    Compression mode            : Lossy
    Delay relative to video     : -5 ms
    Stream size                 : 440 MiB (14%)
    Title                       : Español Latino [CinemaniaHDD]
    Language                    : Spanish
    Service kind                : Complete Main
    Default                     : Yes
    Forced                      : Yes
    Original source medium      : Blu-ray

    Audio #2
    ID                          : 3
    Format                      : AC-3
    Format/Info                 : Audio Coding 3
    Commercial name             : Dolby Digital
    Codec ID                    : A_AC3
    Duration                    : 1 h 36 min
    Bit rate mode               : Constant
    Bit rate                    : 448 kb/s
    Channel(s)                  : 6 channels
    Channel layout              : L R C LFE Ls Rs
    Sampling rate               : 48.0 kHz
    Frame rate                  : 31.250 FPS (1536 SPF)
    Compression mode            : Lossy
    Delay relative to video     : -5 ms
    Stream size                 : 308 MiB (10%)
    Title                       : Ingles [CinemaniaHDD]
    Language                    : English
    Service kind                : Complete Main
    Default                     : No
    Forced                      : No

    Text #1
    ID                          : 4
    Format                      : UTF-8
    Codec ID                    : S_TEXT/UTF8
    Codec ID/Info               : UTF-8 Plain Text
    Duration                    : 1 h 34 min
    Bit rate                    : 1 b/s
    Count of elements           : 22
    Stream size                 : 721 Bytes (0%)
    Title                       : Forzados-SRT [CinemaniaHDD]
    Language                    : Spanish
    Default                     : Yes
    Forced                      : Yes

    Text #2
    ID                          : 5
    Format                      : UTF-8
    Codec ID                    : S_TEXT/UTF8
    Codec ID/Info               : UTF-8 Plain Text
    Duration                    : 1 h 34 min
    Bit rate                    : 59 b/s
    Count of elements           : 1432
    Stream size                 : 41.5 KiB (0%)
    Title                       : Español-SRT [CinemaniaHDD]
    Language                    : Spanish
    Default                     : No
    Forced                      : No

    Menu
    00:00:00.000                : Chapter 01
    00:06:19.379                : Chapter 02
    00:09:14.470                : Chapter 03
    00:12:42.595                : Chapter 04
    00:13:17.087                : Chapter 05
    00:19:29.251                : Chapter 06
    00:21:40.882                : Chapter 07
    00:24:27.966                : Chapter 08
    00:26:10.110                : Chapter 09
    00:28:14.984                : Chapter 10
    00:29:52.499                : Chapter 11
    00:30:15.814                : Chapter 12
    00:33:39.851                : Chapter 13
    00:34:20.850                : Chapter 14
    00:40:18.624                : Chapter 15
    00:41:25.691                : Chapter 16
    00:44:08.437                : Chapter 17
    00:44:39.802                : Chapter 18
    00:48:51.929                : Chapter 19
    00:50:06.169                : Chapter 20
    00:51:53.401                : Chapter 21
    00:53:14.983                : Chapter 22
    00:54:16.711                : Chapter 23
    00:55:47.135                : Chapter 24
    00:58:35.178                : Chapter 25
    00:59:38.533                : Chapter 26
    01:01:53.376                : Chapter 27
    01:02:54.353                : Chapter 28
    01:04:23.067                : Chapter 29
    01:04:36.330                : Chapter 30
    01:08:49.166                : Chapter 31
    01:09:47.808                : Chapter 32
    01:12:25.924                : Chapter 33
    01:14:12.406                : Chapter 34
    01:17:44.242                : Chapter 35
    01:19:02.946                : Chapter 36
    01:21:35.765                : Chapter 37
    01:26:20.717                : Chapter 38

  • Peso: 3.09 GiB

Sinopsis

Descargar Jackass Por Siempre (2022) HD 1080p Latino. Celebre la alegría de un tiro perfectamente ejecutado en la ingle cuando Johnny Knoxville, Steve-O y el resto de la pandilla regresan junto con algunos recién llegados para una ronda final de exhibiciones de acrobacias y comedia hilarantes, tremendamente absurdas y, a menudo, peligrosas.

Ficha técnica

Video trailer de la película

Enlaces de descarga

Rip de Bluray

Descargar Jackass Por Siempre (2022) HD 1080p Latino




Aportes de DPeliculasHDmega la pass es:dpeliculashdmega.org Aportes de CinemaniaHD la pass es:cinemaniahdd.com Aportes recientes:cinemaniahdd.net
Guardado en : Acción , Comedia , Documental , HD 1080p

Películas relacionadas

  • Players (2024) NF WEB-DL 1080p Latino

    Players (2024) NF WEB-DL 1080p Latino

    2024
    Players (2024) NF WEB-DL 1080p Latino

    1h 45m 2024

    Descargar Players (2024) NF WEB-DL 1080p Latino. Una periodista deportiva neoyorquina con un ingenioso...

    Director: Trish Sie

    Género: Comedia

    Actores: Veraalba Santa

  • Combate clandestino (2024) AMZN WEB-DL 1080p Latino

    Combate clandestino (2024) AMZN WEB-DL 1080p Latino

    2024
    Combate clandestino (2024) AMZN WEB-DL 1080p Latino

    1h 30m 2024

    Descargar Combate clandestino (2024) AMZN WEB-DL 1080p Latino. Un ex soldado a la deriva se convierte...

    Director: Christian Sesma

    Género: Acción

    Actores: Tyler Wombles

  • ¡Patos! (2023) HD 1080p Latino

    ¡Patos! (2023) HD 1080p Latino

    2023
    ¡Patos! (2023) HD 1080p Latino

    1h 23m 2023

    Descargar ¡Patos! (2023) HD 1080p Latino. Después de que una familia de patos migratorios aterriza...

    Director: Guy-Laurent Homsy

    Género: Acción

    Actores: Zeno Robinson

descargar Jackass Por Siempre (2022) HD 1080p Latino 1080p 1080p gratis, Jackass Por Siempre (2022) HD 1080p Latino 1080p mega 1 link, Jackass Por Siempre (2022) HD 1080p Latino 1080p pelicula completa, descargar Jackass Por Siempre (2022) HD 1080p Latino 1080p gratis en mega.

Jackass Por Siempre (2022) HD 1080p Latino pelicula full hd, Jackass Por Siempre (2022) HD 1080p Latino mega latino, Jackass Por Siempre (2022) HD 1080p Latino 4k latino, Jackass Por Siempre (2022) HD 1080p Latino pelicula completa, Jackass Por Siempre (2022) HD 1080p Latino descargar gratis, descargar Jackass Por Siempre (2022) HD 1080p Latino pelicula latino, Jackass Por Siempre (2022) HD 1080p Latino 1 link mega, Jackass Por Siempre (2022) HD 1080p Latino 1 link google drive, Jackass Por Siempre (2022) HD 1080p Latino hd 1080p latino.
Comentarios 0