×

¿Problemas para descargar con Mozilla, EDGE? Deshabilita la opción "Abrir vinculos en una pestaña nueva" tal como lo muestra ésta imagen.

Jack Ryan (2022) Tercera Temporada AMZN WEB-DL 1080p Latino

71 vistas

Información de Jack Ryan (2022) Tercera Temporada AMZN WEB-DL 1080p Latino

Datos de la película

  • Calidad: 1080p
  • Audio: Español Latino AC3 5.1 WEB-DL - Ingles AC3 5.1 WEB-DL
  • Subtitulos: Español Latino SRT- FORZADOS SRT
  • Resolución: 1920x872
  • Formato: MKV
  • Codec: H.264
  • Encoder: cinemaniahdd
  • Mediainfo: Clic para Mostrar Datos Ver
  • Tom Clancys Jack Ryan T03E01 AMZN WEB-DL 1080p Latino [CNMNHDD].mkv
    Format                      : Matroska
    Format version              : Version 4
    File size                   : 3.94 GiB
    Duration                    : 1 h 5 min
    Overall bit rate            : 8 653 kb/s
    Movie name                  : Tom Clancys Jack Ryan S03E01 - Falcon [1080p] - CinemaniaHDD.Net
    Encoded date                : UTC 2022-12-21 23:52:16
    Writing application         : mkvmerge v56.1.0 ('My Friend') 64-bit
    Writing library             : libebml v1.4.2 + libmatroska v1.6.4

    Video
    ID                          : 1
    Format                      : AVC
    Format/Info                 : Advanced Video Codec
    Format profile              : High@L4
    Format settings             : CABAC / 4 Ref Frames
    Format settings, CABAC      : Yes
    Format settings, Reference  : 4 frames
    Codec ID                    : V_MPEG4/ISO/AVC
    Duration                    : 1 h 5 min
    Bit rate mode               : Constant
    Bit rate                    : 6 731 kb/s
    Nominal bit rate            : 10 000 kb/s
    Width                       : 1 920 pixels
    Height                      : 872 pixels
    Display aspect ratio        : 2.2:1
    Original display aspect rat : 2.2:1
    Frame rate mode             : Constant
    Frame rate                  : 23.976 (24000/1001) FPS
    Color space                 : YUV
    Chroma subsampling          : 4:2:0
    Bit depth                   : 8 bits
    Scan type                   : Progressive
    Bits/(Pixel*Frame)          : 0.168
    Stream size                 : 3.06 GiB (78%)
    Title                       : CinemaniaHDD
    Default                     : Yes
    Forced                      : No
    Color range                 : Limited
    Color primaries             : BT.709
    Transfer characteristics    : BT.709
    Matrix coefficients         : BT.709

    Audio #1
    ID                          : 2
    Format                      : AC-3
    Format/Info                 : Audio Coding 3
    Commercial name             : Dolby Digital
    Codec ID                    : A_AC3
    Duration                    : 1 h 5 min
    Bit rate mode               : Constant
    Bit rate                    : 640 kb/s
    Channel(s)                  : 6 channels
    Channel layout              : L R C LFE Ls Rs
    Sampling rate               : 48.0 kHz
    Frame rate                  : 31.250 FPS (1536 SPF)
    Compression mode            : Lossy
    Stream size                 : 298 MiB (7%)
    Title                       : Español latino [CinemaniaHDD]
    Language                    : Spanish
    Service kind                : Complete Main
    Default                     : Yes
    Forced                      : No

    Audio #2
    ID                          : 3
    Format                      : E-AC-3
    Format/Info                 : Enhanced AC-3
    Commercial name             : Dolby Digital Plus
    Codec ID                    : A_EAC3
    Duration                    : 1 h 5 min
    Bit rate mode               : Constant
    Bit rate                    : 640 kb/s
    Channel(s)                  : 6 channels
    Channel layout              : L R C LFE Ls Rs
    Sampling rate               : 48.0 kHz
    Frame rate                  : 31.250 FPS (1536 SPF)
    Compression mode            : Lossy
    Stream size                 : 298 MiB (7%)
    Title                       : Español latino / E-AC3 [CinemaniaHDD]
    Language                    : Spanish
    Service kind                : Complete Main
    Default                     : No
    Forced                      : No

    Audio #3
    ID                          : 4
    Format                      : E-AC-3
    Format/Info                 : Enhanced AC-3
    Commercial name             : Dolby Digital Plus
    Codec ID                    : A_EAC3
    Duration                    : 1 h 5 min
    Bit rate mode               : Constant
    Bit rate                    : 640 kb/s
    Channel(s)                  : 6 channels
    Channel layout              : L R C LFE Ls Rs
    Sampling rate               : 48.0 kHz
    Frame rate                  : 31.250 FPS (1536 SPF)
    Compression mode            : Lossy
    Stream size                 : 298 MiB (7%)
    Title                       : Inglés [CinemaniaHDD]
    Language                    : English
    Service kind                : Complete Main
    Default                     : No
    Forced                      : No

    Text #1
    ID                          : 5
    Format                      : UTF-8
    Codec ID                    : S_TEXT/UTF8
    Codec ID/Info               : UTF-8 Plain Text
    Duration                    : 58 min 26 s
    Bit rate                    : 1 b/s
    Count of elements           : 21
    Stream size                 : 540 Bytes (0%)
    Title                       : Forzados [CinemaniaHDD]
    Language                    : Spanish
    Default                     : Yes
    Forced                      : Yes

    Text #2
    ID                          : 6
    Format                      : UTF-8
    Codec ID                    : S_TEXT/UTF8
    Codec ID/Info               : UTF-8 Plain Text
    Duration                    : 1 h 0 min
    Bit rate                    : 43 b/s
    Count of elements           : 556
    Stream size                 : 19.4 KiB (0%)
    Title                       : Español latino [CinemaniaHDD]
    Language                    : Spanish
    Default                     : No
    Forced                      : No

    Text #3
    ID                          : 7
    Format                      : UTF-8
    Codec ID                    : S_TEXT/UTF8
    Codec ID/Info               : UTF-8 Plain Text
    Duration                    : 1 h 1 min
    Bit rate                    : 50 b/s
    Count of elements           : 808
    Stream size                 : 22.6 KiB (0%)
    Title                       : Inglés [CinemaniaHDD]
    Language                    : English
    Default                     : No
    Forced                      : No

    Menu
    00:00:00.000                : Prime Video
    00:00:06.000                : Opening Credits
    00:01:42.000                : Scene 3
    00:06:25.000                : Scene 4
    00:09:38.000                : Scene 5
    00:10:46.000                : Scene 6
    00:11:12.000                : Scene 7
    00:12:52.000                : Scene 8
    00:15:10.000                : Scene 9
    00:16:59.000                : Scene 10
    00:20:05.000                : Scene 11
    00:23:35.000                : Scene 12
    00:25:20.000                : Scene 13
    00:26:17.000                : Scene 14
    00:27:58.000                : Scene 15
    00:28:41.000                : Scene 16
    00:30:22.000                : Scene 17
    00:32:12.000                : Scene 18
    00:32:49.000                : Scene 19
    00:39:21.000                : Scene 20
    00:46:26.000                : Scene 21
    00:50:35.000                : Scene 22
    00:55:52.000                : Scene 23
    01:00:07.000                : End Credits

     

  • Peso: 3.94 GiB Aprox ---- 23 GiB in 8 Chapters.

Sinopsis

En la temporada 3 de Jack Ryan de Tom Clancy, Jack lucha contra el tiempo y viaja a Europa para detener a una división falsa dentro del gobierno ruso que busca restaurar el Imperio soviético e iniciar la Tercera Guerra Mundial.

Ficha técnica

Video trailer de la película

Enlaces de descarga

Rip de Bluray

Descargar Jack Ryan (2022) Tercera Temporada AMZN WEB-DL 1080p Latino




Aportes de DPeliculasHDmega la pass es:dpeliculashdmega.org Aportes de CinemaniaHD la pass es:cinemaniahdd.com

Películas relacionadas

  • El discurso del Rey (2010) 1080p Latino

    El discurso del Rey (2010) 1080p Latino

    2010
    El discurso del Rey (2010) 1080p Latino

    1h 58m 2010

    Descargar El discurso del Rey (2010) 1080p Latino. El duque de York se convirtió en rey de Gran Bretaña...

    Director: Tom Hooper

    Género: Drama

    Actores: Tony Earnshaw

  • El discurso del Rey (2010) Full HD 1080p Latino

    El discurso del Rey (2010) Full HD 1080p Latino

    2010
    El discurso del Rey (2010) Full HD 1080p Latino

    1h 58m 2010

    Descargar El discurso del Rey (2010) Full HD 1080p Latino. El duque de York se convirtió en rey de Gran...

    Director: Tom Hooper

    Género: Drama

    Actores: Tony Earnshaw

  • El discurso del Rey (2010) REMUX 1080p Latino

    El discurso del Rey (2010) REMUX 1080p Latino

    2010
    El discurso del Rey (2010) REMUX 1080p Latino

    1h 58m 2010

    Descargar El discurso del Rey (2010) REMUX 1080p Latino. El duque de York se convirtió en rey de Gran...

    Director: Tom Hooper

    Género: Drama

    Actores: Tony Earnshaw

  • 8 Mile (2002) REMUX 4K HDR Latino – CMHDD

    8 Mile (2002) REMUX 4K HDR Latino – CMHDD

    2002
    8 Mile (2002) REMUX 4K HDR Latino – CMHDD

    1h 50m 2002

    Detroit, 1995. La promesa de potencia industrial se ha transformado en un hervidero de conflictos económicos...

    Director: Michael J. Moore

    Género: Drama

    Actores: Xzibit

descargar Jack Ryan (2022) Tercera Temporada AMZN WEB-DL 1080p Latino 1080p 1080p gratis, Jack Ryan (2022) Tercera Temporada AMZN WEB-DL 1080p Latino 1080p mega 1 link, Jack Ryan (2022) Tercera Temporada AMZN WEB-DL 1080p Latino 1080p serie completa, descargar Jack Ryan (2022) Tercera Temporada AMZN WEB-DL 1080p Latino 1080p gratis en mega.

Jack Ryan (2022) Tercera Temporada AMZN WEB-DL 1080p Latino pelicula full hd, Jack Ryan (2022) Tercera Temporada AMZN WEB-DL 1080p Latino mega latino, Jack Ryan (2022) Tercera Temporada AMZN WEB-DL 1080p Latino 4k latino, Jack Ryan (2022) Tercera Temporada AMZN WEB-DL 1080p Latino pelicula completa, Jack Ryan (2022) Tercera Temporada AMZN WEB-DL 1080p Latino descargar gratis, descargar Jack Ryan (2022) Tercera Temporada AMZN WEB-DL 1080p Latino pelicula latino, Jack Ryan (2022) Tercera Temporada AMZN WEB-DL 1080p Latino 1 link mega, Jack Ryan (2022) Tercera Temporada AMZN WEB-DL 1080p Latino 1 link google drive, Jack Ryan (2022) Tercera Temporada AMZN WEB-DL 1080p Latino hd 1080p latino.
Comentarios 0