Jack Goes Home (2016) WEB-DL 1080p Latino

735 vistas
1 estrella2 estrellas3 estrellas4 estrellas5 estrellas (Ninguna valoración todavía)
Cargando…

Información de Jack Goes Home (2016) WEB-DL 1080p Latino

Datos de la película

  • Calidad: WEBDL
  • Audio: Español Latino AC3 2.0 DVD - Ingles AC3 5.1 iTunes
  • Subtitulos: Español Latino SRT
  • Resolución: 1918X798p
  • Formato: MKV
  • Codec: H.264
  • Encoder: FGT
  • Mediainfo: Clic para Mostrar Datos Ver
  • Format                                   : Matroska
    Format version                           : Version 4 / Version 2
    File size                                : 3.94 GiB
    Duration                                 : 1 h 44 min
    Overall bit rate                         : 5 397 kb/s
    Movie name                               : CinemaniaHDD.com
    Encoded date                             : UTC 2018-01-09 03:20:39
    Writing application                      : mkvmerge v15.0.0 ('Duel with the Devil') 64-bit
    Writing library                          : libebml v1.3.5 + libmatroska v1.4.5

    Video
    ID                                       : 1
    Format                                   : AVC
    Format/Info                              : Advanced Video Codec
    Format profile                           : High@L4
    Format settings                          : CABAC / 5 Ref Frames
    Format settings, CABAC                   : Yes
    Format settings, RefFrames               : 5 frames
    Codec ID                                 : V_MPEG4/ISO/AVC
    Duration                                 : 1 h 44 min
    Bit rate                                 : 4 563 kb/s
    Width                                    : 1 918 pixels
    Height                                   : 798 pixels
    Display aspect ratio                     : 2.40:1
    Frame rate mode                          : Constant
    Frame rate                               : 23.976 (23976/1000) FPS
    Color space                              : YUV
    Chroma subsampling                       : 4:2:0
    Bit depth                                : 8 bits
    Scan type                                : Progressive
    Bits/(Pixel*Frame)                       : 0.124
    Stream size                              : 3.33 GiB (85%)
    Title                                    : Jack Goes Home (2016) WEB-DL 1080p Latino
    Language                                 : English
    Default                                  : Yes
    Forced                                   : No
    Color range                              : Limited
    Color primaries                          : BT.709
    Transfer characteristics                 : BT.709
    Matrix coefficients                      : BT.709

    Audio #1
    ID                                       : 2
    Format                                   : AC-3
    Format/Info                              : Audio Coding 3
    Format settings, Endianness              : Big
    Codec ID                                 : A_AC3
    Duration                                 : 1 h 44 min
    Bit rate mode                            : Constant
    Bit rate                                 : 192 kb/s
    Channel(s)                               : 2 channels
    Channel positions                        : Front: L R,
    Sampling rate                            : 48.0 kHz
    Frame rate                               : 31.250 FPS (1536 SPF)
    Bit depth                                : 16 bits
    Compression mode                         : Lossy
    Delay relative to video                  : 24 ms
    Stream size                              : 334 MiB (8%)
    Language                                 : Spanish
    Service kind                             : Complete Main
    Default                                  : Yes
    Forced                                   : No

    Audio #2
    ID                                       : 3
    Format                                   : AC-3
    Format/Info                              : Audio Coding 3
    Format settings, Endianness              : Big
    Codec ID                                 : A_AC3
    Duration                                 : 1 h 44 min
    Bit rate mode                            : Constant
    Bit rate                                 : 384 kb/s
    Channel(s)                               : 6 channels
    Channel positions                        : Front: L C R, Side: L R, LFE
    Sampling rate                            : 48.0 kHz
    Frame rate                               : 31.250 FPS (1536 SPF)
    Bit depth                                : 16 bits
    Compression mode                         : Lossy
    Stream size                              : 287 MiB (7%)
    Language                                 : English
    Service kind                             : Complete Main
    Default                                  : No
    Forced                                   : No

    Text #1
    ID                                       : 4
    Format                                   : UTF-8
    Codec ID                                 : S_TEXT/UTF8
    Codec ID/Info                            : UTF-8 Plain Text
    Duration                                 : 1 h 38 min
    Bit rate                                 : 49 b/s
    Count of elements                        : 1194
    Stream size                              : 36.0 KiB (0%)
    Language                                 : Spanish
    Default                                  : No
    Forced                                   : No

    Text #2
    ID                                       : 5
    Format                                   : UTF-8
    Codec ID                                 : S_TEXT/UTF8
    Codec ID/Info                            : UTF-8 Plain Text
    Duration                                 : 1 h 38 min
    Bit rate                                 : 49 b/s
    Count of elements                        : 1205
    Stream size                              : 35.4 KiB (0%)
    Language                                 : English
    Default                                  : No
    Forced                                   : No

    Menu
    00:00:00.000                             : en:1
    00:04:28.601                             : en:2
    00:11:19.595                             : en:3
    00:17:21.164                             : en:4
    00:25:15.513                             : en:5
    00:31:41.106                             : en:6
    00:35:51.064                             : en:7
    00:41:10.675                             : en:8
    00:47:41.732                             : en:9
    00:53:55.021                             : en:10
    01:03:09.784                             : en:11
    01:11:34.955                             : en:12
    01:20:45.588                             : en:13
    01:26:24.969                             : en:14
    01:31:47.875                             : en:15
    01:36:11.597                             : en:16

     

  • Peso: 3.94 GiB

Sinopsis

Después de que su padre muere en un accidente automovilístico, Jack (Rory Culkin) regresa a su casa en Colorado para ayudar a cuidar de su madre (quien resultó herida en el accidente) hasta que se recupere. Allí, él descubre secretos enterrados durante mucho tiempo y se encuentra con su historia familiar, sus padres, sus amigos y su propia identidad.

Ficha técnica

  • Titulo original: Jack Goes Home
  • Fecha de lanzamiento: 14-03-2016 (United States of America)
  • Director: Thomas Dekker
  • Género: Drama, Suspense, Terror
  • Puntuación: 0.0 0 votos
  • Duración:
    1 h 44 min

Video trailer de la película

Enlaces de descarga

Rip de Bluray

Descargar Jack Goes Home (2016) WEB-DL 1080p Latino




Aportes de DPeliculasHDmega la pass es:dpeliculashdmega.org Aportes de CinemaniaHD la pass es:cinemaniahdd.com
Guardado en : Drama , Suspense , Terror

Películas relacionadas

Comentarios 2
  • snj - 10 enero, 2018

    Hola
    descargue la película y el audio latino es 5.1 448 kbps, me parecía raro que en el mediainfo del post, el audio latino con menos bitrate pese mas que el inglés.

    • dpelis - 11 enero, 2018

      correcto, pero en realidad el audio es dos canales