×

¿Problemas para descargar con Mozilla, EDGE? Deshabilita la opción "Abrir vinculos en una pestaña nueva" tal como lo muestra ésta imagen.

iZombie (2015) Temporada 01 REMUX 1080p Latino

168 vistas

Información de iZombie (2015) Temporada 01 REMUX 1080p Latino

Datos de la película

  • Calidad: Full 1080p
  • Audio: Se especifica abajo de la Sinopsis
  • Subtitulos: Español Latino SRT- FORZADOS SRT
  • Resolución: 1920x1080p
  • Formato: MKV
  • Codec: H.264
  • Encoder: CinefiloCool
  • Mediainfo: Clic para Mostrar Datos Ver
  • iZombie S01E01 (2015) REMUX 1080p Latino-CMHDD.mkv
    Format                      : Matroska
    Format version              : Version 4
    File size                   : 10.6 GiB
    Duration                    : 42 min 40 s
    Overall bit rate mode       : Variable
    Overall bit rate            : 35.5 Mb/s
    Movie name                  : iZombie S01E01 - Pilot CinemaniaHDD.Net
    Encoded date                : UTC 2021-08-25 03:32:32
    Writing application         : mkvmerge v56.1.0 ('My Friend') 64-bit
    Writing library             : libebml v1.4.2 + libmatroska v1.6.4

    Video
    ID                          : 1
    Format                      : AVC
    Format/Info                 : Advanced Video Codec
    Format profile              : High@L4.1
    Format settings             : CABAC / 4 Ref Frames
    Format settings, CABAC      : Yes
    Format settings, Reference  : 4 frames
    Codec ID                    : V_MPEG4/ISO/AVC
    Duration                    : 42 min 40 s
    Bit rate mode               : Variable
    Bit rate                    : 31.7 Mb/s
    Maximum bit rate            : 38.0 Mb/s
    Width                       : 1 920 pixels
    Height                      : 1 080 pixels
    Display aspect ratio        : 16:9
    Frame rate mode             : Constant
    Frame rate                  : 23.976 (24000/1001) FPS
    Color space                 : YUV
    Chroma subsampling          : 4:2:0
    Bit depth                   : 8 bits
    Scan type                   : Progressive
    Bits/(Pixel*Frame)          : 0.638
    Stream size                 : 9.46 GiB (89%)
    Title                       : REMUX HD1080p [CinemaniaHDD]
    Default                     : Yes
    Forced                      : Yes

    Audio #1
    ID                          : 2
    Format                      : AC-3
    Format/Info                 : Audio Coding 3
    Commercial name             : Dolby Digital
    Codec ID                    : A_AC3
    Duration                    : 42 min 40 s
    Bit rate mode               : Constant
    Bit rate                    : 256 kb/s
    Channel(s)                  : 2 channels
    Channel layout              : L R
    Sampling rate               : 48.0 kHz
    Frame rate                  : 31.250 FPS (1536 SPF)
    Compression mode            : Lossy
    Stream size                 : 78.1 MiB (1%)
    Title                       : Español Latino [CinemaniaHDD]
    Language                    : Spanish
    Service kind                : Complete Main
    Default                     : Yes
    Forced                      : Yes

    Audio #2
    ID                          : 3
    Format                      : DTS XLL
    Format/Info                 : Digital Theater Systems
    Commercial name             : DTS-HD Master Audio
    Codec ID                    : A_DTS
    Duration                    : 42 min 40 s
    Bit rate mode               : Variable
    Bit rate                    : 3 408 kb/s
    Channel(s)                  : 6 channels
    Channel layout              : C L R Ls Rs LFE
    Sampling rate               : 48.0 kHz
    Frame rate                  : 93.750 FPS (512 SPF)
    Bit depth                   : 24 bits
    Compression mode            : Lossless
    Stream size                 : 1.02 GiB (10%)
    Title                       : Ingles [CinemaniaHDD]
    Language                    : English
    Default                     : No
    Forced                      : No

    Text #1
    ID                          : 4
    Format                      : UTF-8
    Codec ID                    : S_TEXT/UTF8
    Codec ID/Info               : UTF-8 Plain Text
    Duration                    : 17 min 33 s
    Bit rate                    : 2 b/s
    Count of elements           : 8
    Stream size                 : 381 Bytes (0%)
    Title                       : Forzados-SRT [CinemaniaHDD]
    Language                    : Spanish
    Default                     : Yes
    Forced                      : Yes

    Text #2
    ID                          : 5
    Format                      : UTF-8
    Codec ID                    : S_TEXT/UTF8
    Codec ID/Info               : UTF-8 Plain Text
    Duration                    : 41 min 45 s
    Bit rate                    : 89 b/s
    Count of elements           : 640
    Stream size                 : 27.4 KiB (0%)
    Title                       : Español-SRT [CinemaniaHDD]
    Language                    : Spanish
    Default                     : No
    Forced                      : No

    Text #3
    ID                          : 6
    Format                      : PGS
    Muxing mode                 : zlib
    Codec ID                    : S_HDMV/PGS
    Codec ID/Info               : Picture based subtitle format used on BDs/HD-DVDs
    Duration                    : 42 min 4 s
    Bit rate                    : 110 kb/s
    Count of elements           : 1574
    Stream size                 : 33.2 MiB (0%)
    Title                       : Ingles-PGS [CinemaniaHDD]
    Language                    : English
    Default                     : No
    Forced                      : No

    Menu
    00:00:00.000                : Chapter 1
    00:03:15.904                : Chapter 2
    00:07:41.378                : Chapter 3
    00:17:15.284                : Chapter 4
    00:24:49.071                : Chapter 5
    00:28:53.857                : Chapter 6
    00:34:12.842                : Chapter 7
    00:42:12.405                : Chapter 8

  • Peso: 8.14 - 10.5 GiB Aprox. C/U | 118 GiB Total.

Sinopsis

Descargar iZombie (2015) Temporada 01 REMUX 1080p Latino. Gira en torno a una estudiante de medicina que se convierte en zombi y coge un trabajo de médico forense para tener acceso a los cerebros que debe comer para mantener su humanidad. Pero con cada cerebro que consume, hereda recuerdos del cadáver. De ahí que, con la ayuda de su jefe médico forense y un detective de policía, empiece a resolver casos de homicidio con el fin de callar las voces inquietantes de su cabeza.

Argumento Primera Temporada: Olivia Moore era una disciplinada estudiante de medicina que tenía su camino de vida completamente trazada hasta que fue convertida en zombi. Como cualquier otro zombi, Liv está haciendo su mejor esfuerzo por pasar desapercibida y parecer humana. Su aspecto actual pasa por gótico, con la piel pálida y el pelo casi blanco y su actitud ha pasado de ser exuberante a estar siempre exhausta. El cambio de la chica es desconcertante para Nora, su madre; Major, su ex prometido y para Peyton, su mejor amiga y compañera de cuarto. Renuente a devorar cerebros humanos frescos, Liv se las arregla para obtener un trabajo en el departamento forense de Seattle, en donde tiene acceso a los cerebros que ella debe comer para mantener su humanidad. A pesar de cubrir cuidadosamente sus pistas, el jefe de Liv, Ravi Chakrabarti descubre su secreto. Incluso con el entusiasmo de su jefe, Liv está resignada a una eternidad sin esperanza ni propósito, hasta que descubre que con cada cerebro que consume, absorbe las memorias de esa persona y comienza a experimentar visiones desde el punto de vista de las víctimas de asesinato, obteniendo un conocimiento detallado de la escena del crimen y los motivos que es difícil de explicar. Haciéndose pasar por una médium, Liv trabaja con el detective Babineaux ayudando a resolver casos de homicidio para callar las voces en su cabeza.

Audio:
Español Latino Editado AC3 2.0 HMAX – Ingles DTS-HD 5.1 Bluray
Audio Latino: CinefiloCool Thanks!!! 😀
Disponible Solo para VIP!!

Ficha técnica

Video trailer de la película

Enlaces de descarga

Rip de Bluray

Descargar iZombie (2015) Temporada 01 REMUX 1080p Latino


Aportes de DPeliculasHDmega la pass es:dpeliculashdmega.org Aportes de CinemaniaHD la pass es:cinemaniahdd.com
Guardado en : Crimen , Drama , Remux , Sci-Fi & Fantasy , Series

Películas relacionadas

  • Noche sin paz (2022) PLACEBO Full HD 1080p Latino

    Noche sin paz (2022) PLACEBO Full HD 1080p Latino

    2022
    Noche sin paz (2022) PLACEBO Full HD 1080p Latino

    1h 41m 2022

    Descargar Noche sin paz (2022) PLACEBO Full HD 1080p Latino. Cuando un equipo de mercenarios irrumpe...

    Director: Tyshana Hobson

    Género: Acción

    Actores: Yoon Cha-Lee

  • Noche sin paz (2022) HD 1080p Latino

    Noche sin paz (2022) HD 1080p Latino

    2022
    Noche sin paz (2022) HD 1080p Latino

    1h 41m 2022

    Descargar Noche sin paz (2022) HD 1080p Latino. Cuando un equipo de mercenarios irrumpe en Nochebuena...

    Director: Tyshana Hobson

    Género: Acción

    Actores: Yoon Cha-Lee

  • Noche sin paz (2022) REMUX 1080p Latino

    Noche sin paz (2022) REMUX 1080p Latino

    2022
    Noche sin paz (2022) REMUX 1080p Latino

    1h 41m 2022

    Descargar Noche sin paz (2022) REMUX 1080p Latino. Cuando un equipo de mercenarios irrumpe en Nochebuena...

    Director: Tyshana Hobson

    Género: Acción

    Actores: Yoon Cha-Lee

  • Narvik (2022) NF WEB-DL 1080p Latino

    Narvik (2022) NF WEB-DL 1080p Latino

    2022
    Narvik (2022) NF WEB-DL 1080p Latino

    1h 48m 2022

    Descargar Narvik (2022) NF WEB-DL 1080p Latino. Abril de 1940. Los ojos del mundo están puestos en Narvik,...

    Director: Suzanne Svae-Johansen

    Género: Acción

    Actores: Torfinn Nag

descargar iZombie (2015) Temporada 01 REMUX 1080p Latino Full 1080p 1080p gratis, iZombie (2015) Temporada 01 REMUX 1080p Latino Full 1080p mega 1 link, iZombie (2015) Temporada 01 REMUX 1080p Latino Full 1080p serie completa, descargar iZombie (2015) Temporada 01 REMUX 1080p Latino Full 1080p gratis en mega.

iZombie (2015) Temporada 01 REMUX 1080p Latino pelicula full hd, iZombie (2015) Temporada 01 REMUX 1080p Latino mega latino, iZombie (2015) Temporada 01 REMUX 1080p Latino 4k latino, iZombie (2015) Temporada 01 REMUX 1080p Latino pelicula completa, iZombie (2015) Temporada 01 REMUX 1080p Latino descargar gratis, descargar iZombie (2015) Temporada 01 REMUX 1080p Latino pelicula latino, iZombie (2015) Temporada 01 REMUX 1080p Latino 1 link mega, iZombie (2015) Temporada 01 REMUX 1080p Latino 1 link google drive, iZombie (2015) Temporada 01 REMUX 1080p Latino hd 1080p latino.
Comentarios 0