×

¿Problemas para descargar con Mozilla, EDGE? Deshabilita la opción "Abrir vinculos en una pestaña nueva" tal como lo muestra ésta imagen.

It’s Complicated (2009) REMUX 1080p Latino – CMHDD

433 vistas

Información de It’s Complicated (2009) REMUX 1080p Latino – CMHDD

Datos de la película

  • Calidad: Full 1080p
  • Audio: Español Latino DTS 5.1 BLURAY - Ingles DTS 5.1 BLURAY
  • Subtitulos: Español Latino PGS
  • Resolución: 1920x1080p
  • Formato: MKV
  • Codec: H.264
  • Encoder: Dracarys
  • Mediainfo: Clic para Mostrar Datos Ver
  • Format                      : Matroska
    Format version              : Version 4
    File size                   : 27.8 GiB
    Duration                    : 2 h 0 min
    Overall bit rate mode       : Variable
    Overall bit rate            : 33.1 Mb/s
    Movie name                  : It's Complicated (2009) REMUX 1080p Latino - CMHDD
    Encoded date                : UTC 2021-03-20 22:41:42
    Writing application         : mkvmerge v51.0.0 ('I Wish') 64-bit
    Writing library             : libebml v1.4.0 + libmatroska v1.6.2
    Cover                       : Yes
    Attachments                 : cover.jpg

    Video
    ID                          : 1
    ID in the original source m : 4113 (0x1011)
    Format                      : VC-1
    Format profile              : Advanced@L3
    Codec ID                    : V_MS/VFW/FOURCC / WVC1
    Codec ID/Hint               : Microsoft
    Duration                    : 2 h 0 min
    Bit rate                    : 28.7 Mb/s
    Width                       : 1 920 pixels
    Height                      : 1 080 pixels
    Display aspect ratio        : 16:9
    Frame rate mode             : Constant
    Frame rate                  : 23.976 (24000/1001) FPS
    Color space                 : YUV
    Chroma subsampling          : 4:2:0
    Bit depth                   : 8 bits
    Scan type                   : Progressive
    Compression mode            : Lossy
    Bits/(Pixel*Frame)          : 0.576
    Stream size                 : 24.1 GiB (87%)
    Default                     : Yes
    Forced                      : No
    Original source medium      : Blu-ray

    Audio #1
    ID                          : 2
    ID in the original source m : 4356 (0x1104)
    Format                      : DTS
    Format/Info                 : Digital Theater Systems
    Codec ID                    : A_DTS
    Duration                    : 2 h 0 min
    Bit rate mode               : Constant
    Bit rate                    : 768 kb/s
    Channel(s)                  : 6 channels
    Channel layout              : C L R Ls Rs LFE
    Sampling rate               : 48.0 kHz
    Frame rate                  : 93.750 FPS (512 SPF)
    Bit depth                   : 24 bits
    Compression mode            : Lossy
    Stream size                 : 660 MiB (2%)
    Language                    : Spanish
    Default                     : Yes
    Forced                      : No
    Original source medium      : Blu-ray

    Audio #2
    ID                          : 3
    ID in the original source m : 4352 (0x1100)
    Format                      : DTS XLL
    Format/Info                 : Digital Theater Systems
    Commercial name             : DTS-HD Master Audio
    Codec ID                    : A_DTS
    Duration                    : 2 h 0 min
    Bit rate mode               : Variable
    Bit rate                    : 3 656 kb/s
    Channel(s)                  : 6 channels
    Channel layout              : C L R Ls Rs LFE
    Sampling rate               : 48.0 kHz
    Frame rate                  : 93.750 FPS (512 SPF)
    Bit depth                   : 24 bits
    Compression mode            : Lossless
    Stream size                 : 3.07 GiB (11%)
    Language                    : English
    Default                     : No
    Forced                      : No
    Original source medium      : Blu-ray

    Text #1
    ID                          : 4
    ID in the original source m : 4612 (0x1204)
    Format                      : PGS
    Muxing mode                 : zlib
    Codec ID                    : S_HDMV/PGS
    Codec ID/Info               : Picture based subtitle format used on BDs/HD-DVDs
    Duration                    : 1 h 53 min
    Bit rate                    : 41.2 kb/s
    Count of elements           : 3180
    Stream size                 : 33.3 MiB (0%)
    Language                    : Spanish
    Default                     : No
    Forced                      : No
    Original source medium      : Blu-ray

    Text #2
    ID                          : 5
    ID in the original source m : 4626 (0x1212)
    Format                      : PGS
    Muxing mode                 : zlib
    Codec ID                    : S_HDMV/PGS
    Codec ID/Info               : Picture based subtitle format used on BDs/HD-DVDs
    Duration                    : 39 s 123 ms
    Bit rate                    : 9 352 b/s
    Count of elements           : 4
    Stream size                 : 44.7 KiB (0%)
    Language                    : Spanish
    Default                     : No
    Forced                      : No
    Original source medium      : Blu-ray

    Menu
    00:00:00.000                : en:Chapter 01
    00:07:40.960                : en:Chapter 02
    00:10:23.039                : en:Chapter 03
    00:15:33.307                : en:Chapter 04
    00:21:08.558                : en:Chapter 05
    00:27:37.364                : en:Chapter 06
    00:33:41.019                : en:Chapter 07
    00:40:43.482                : en:Chapter 08
    00:48:06.216                : en:Chapter 09
    00:54:39.651                : en:Chapter 10
    00:58:50.485                : en:Chapter 11
    01:09:31.417                : en:Chapter 12
    01:14:53.655                : en:Chapter 13
    01:18:59.401                : en:Chapter 14
    01:25:22.992                : en:Chapter 15
    01:30:34.303                : en:Chapter 16
    01:37:41.272                : en:Chapter 17
    01:43:35.667                : en:Chapter 18
    01:49:16.633                : en:Chapter 19
    01:54:44.502                : en:Chapter 20

  • Peso: 27.8 GiB

Sinopsis

Jane, madre de tres hijos ya adultos, es la propietaria de un restaurante-pastelería de Santa Barbara. A pesar de estar divorciada desde hace años, mantiene una amistosa relación con su ex-marido Jake. Sin embargo, cuando tienen que viajar juntos para asistir a la graduación de su hijo, su relación se estropea. Al casarse Jake con una mujer más joven, Jane se convierte de pronto en «la otra». Y de este embrollo no podrá librarse ni siquiera Adam, un arquitecto contratado para renovar la cocina de Jane.

Ficha técnica

  • Titulo original: It's Complicated
  • Fecha de lanzamiento: 23-12-2009 (United States of America)
  • Director: Nancy Meyers
  • Género: Comedia, Romance

Video trailer de la película

Enlaces de descarga

Rip de Bluray

Descargar It’s Complicated (2009) REMUX 1080p Latino – CMHDD


Aportes de DPeliculasHDmega la pass es:dpeliculashdmega.org Aportes de CinemaniaHD la pass es:cinemaniahdd.com Aportes recientes:cinemaniahdd.net
Guardado en : Comedia , Romance

Películas relacionadas

descargar It’s Complicated (2009) REMUX 1080p Latino – CMHDD Full 1080p 1080p gratis, It’s Complicated (2009) REMUX 1080p Latino – CMHDD Full 1080p mega 1 link, It’s Complicated (2009) REMUX 1080p Latino – CMHDD Full 1080p pelicula completa, descargar It’s Complicated (2009) REMUX 1080p Latino – CMHDD Full 1080p gratis en mega.

It’s Complicated (2009) REMUX 1080p Latino – CMHDD pelicula full hd, It’s Complicated (2009) REMUX 1080p Latino – CMHDD mega latino, It’s Complicated (2009) REMUX 1080p Latino – CMHDD 4k latino, It’s Complicated (2009) REMUX 1080p Latino – CMHDD pelicula completa, It’s Complicated (2009) REMUX 1080p Latino – CMHDD descargar gratis, descargar It’s Complicated (2009) REMUX 1080p Latino – CMHDD pelicula latino, It’s Complicated (2009) REMUX 1080p Latino – CMHDD 1 link mega, It’s Complicated (2009) REMUX 1080p Latino – CMHDD 1 link google drive, It’s Complicated (2009) REMUX 1080p Latino – CMHDD hd 1080p latino.
Comentarios 0