×

¿Problemas para descargar con Mozilla, EDGE? Deshabilita la opción "Abrir vinculos en una pestaña nueva" tal como lo muestra ésta imagen.

It Takes Two (1995) AMZN WEB-DL 1080p Latino

190 vistas

Información de It Takes Two (1995) AMZN WEB-DL 1080p Latino

Datos de la película

  • Calidad: WEBDL
  • Audio: Español Latino AC3 2.0 WEB-DL - Ingles AC3 5.1 WEB-DL
  • Subtitulos: Español Latino SRT- FORZADOS SRT
  • Resolución: 1920x1080
  • Formato: MKV
  • Codec: H.264
  • Encoder: cinemaniahdd
  • Mediainfo: Clic para Mostrar Datos Ver
  • It Takes Two (1995) AMZN WEB-DL 1080p Latino [CNMNHDD].mkv
    Format                      : Matroska
    Format version              : Version 4
    File size                   : 10.7 GiB
    Duration                    : 1 h 40 min
    Overall bit rate            : 15.2 Mb/s
    Movie name                  : It Takes Two (1995) - CinemaniaHDD.Net
    Encoded date                : UTC 2021-06-02 01:10:05
    Writing application         : mkvmerge v56.1.0 ('My Friend') 64-bit
    Writing library             : libebml v1.4.2 + libmatroska v1.6.4

    Video
    ID                          : 1
    Format                      : AVC
    Format/Info                 : Advanced Video Codec
    Format profile              : High@L4
    Format settings             : CABAC / 4 Ref Frames
    Format settings, CABAC      : Yes
    Format settings, Reference  : 4 frames
    Codec ID                    : V_MPEG4/ISO/AVC
    Duration                    : 1 h 40 min
    Bit rate                    : 14.2 Mb/s
    Width                       : 1 920 pixels
    Height                      : 1 080 pixels
    Display aspect ratio        : 16:9
    Frame rate mode             : Constant
    Frame rate                  : 23.976 (24000/1001) FPS
    Color space                 : YUV
    Chroma subsampling          : 4:2:0
    Bit depth                   : 8 bits
    Scan type                   : Progressive
    Bits/(Pixel*Frame)          : 0.285
    Stream size                 : 10.00 GiB (93%)
    Title                       : CinemaniaHDD
    Default                     : Yes
    Forced                      : No
    Color range                 : Limited
    Color primaries             : BT.709
    Transfer characteristics    : BT.709
    Matrix coefficients         : BT.709

    Audio #1
    ID                          : 2
    Format                      : AC-3
    Format/Info                 : Audio Coding 3
    Commercial name             : Dolby Digital
    Codec ID                    : A_AC3
    Duration                    : 1 h 40 min
    Bit rate mode               : Constant
    Bit rate                    : 384 kb/s
    Channel(s)                  : 2 channels
    Channel layout              : L R
    Sampling rate               : 48.0 kHz
    Frame rate                  : 31.250 FPS (1536 SPF)
    Compression mode            : Lossy
    Stream size                 : 277 MiB (3%)
    Title                       : Español latino [CinemaniaHDD]
    Language                    : Spanish
    Service kind                : Complete Main
    Default                     : Yes
    Forced                      : No

    Audio #2
    ID                          : 3
    Format                      : E-AC-3
    Format/Info                 : Enhanced AC-3
    Commercial name             : Dolby Digital Plus
    Codec ID                    : A_EAC3
    Duration                    : 1 h 40 min
    Bit rate mode               : Constant
    Bit rate                    : 640 kb/s
    Channel(s)                  : 6 channels
    Channel layout              : L R C LFE Ls Rs
    Sampling rate               : 48.0 kHz
    Frame rate                  : 31.250 FPS (1536 SPF)
    Compression mode            : Lossy
    Stream size                 : 462 MiB (4%)
    Title                       : Inglés [CinemaniaHDD]
    Language                    : English
    Service kind                : Complete Main
    Default                     : No
    Forced                      : No

    Text #1
    ID                          : 4
    Format                      : UTF-8
    Codec ID                    : S_TEXT/UTF8
    Codec ID/Info               : UTF-8 Plain Text
    Duration                    : 1 h 24 min
    Bit rate                    : 0 b/s
    Count of elements           : 18
    Stream size                 : 376 Bytes (0%)
    Title                       : Forzados [CinemaniaHDD]
    Language                    : Spanish
    Default                     : Yes
    Forced                      : Yes

    Text #2
    ID                          : 5
    Format                      : UTF-8
    Codec ID                    : S_TEXT/UTF8
    Codec ID/Info               : UTF-8 Plain Text
    Duration                    : 1 h 36 min
    Bit rate                    : 52 b/s
    Count of elements           : 1395
    Stream size                 : 37.4 KiB (0%)
    Title                       : Español latino [CinemaniaHDD]
    Language                    : Spanish
    Default                     : No
    Forced                      : No

    Text #3
    ID                          : 6
    Format                      : UTF-8
    Codec ID                    : S_TEXT/UTF8
    Codec ID/Info               : UTF-8 Plain Text
    Duration                    : 1 h 40 min
    Bit rate                    : 69 b/s
    Count of elements           : 1577
    Stream size                 : 51.1 KiB (0%)
    Title                       : Inglés [CC] [CinemaniaHDD]
    Language                    : English
    Default                     : No
    Forced                      : No

    Menu
    00:00:00.000                : Scene 1
    00:00:10.000                : Scene 2
    00:10:38.000                : Scene 3
    00:22:38.000                : Scene 4
    00:34:47.000                : Scene 5
    00:43:37.000                : Scene 6
    00:55:03.000                : Scene 7
    01:08:45.000                : Scene 8
    01:17:50.000                : Scene 9
    01:25:52.000                : Scene 10
    01:37:17.000                : End Credits

     

  • Peso: 10.7 GiB

Sinopsis

Alysa es una niña que viaja hasta la residencia de campo de su millonario padre para pasar allí las vacaciones. Justo al lado de la casa, su fallecida madre construyó un campamento de verano para niños huérfanos. Allí conoce a Amanda, una simpática niña con la que iniciará una bonita amistad. Cuando el padre de Alysa anuncia su compromiso con una mujer repulsiva y maniática, las dos niñas decidirán tender una trampa para que el padre de Alysa se enamore de la asistente social de Amanda.

Ficha técnica

Video trailer de la película

Enlaces de descarga

Rip de Bluray

Descargar It Takes Two (1995) AMZN WEB-DL 1080p Latino




Aportes de DPeliculasHDmega la pass es:dpeliculashdmega.org Aportes de CinemaniaHD la pass es:cinemaniahdd.com
Guardado en : Comedia , Familia , Romance

Películas relacionadas

  • DC Liga De Supermascotas (2022) HD 1080p Latino

    DC Liga De Supermascotas (2022) HD 1080p Latino

    2022
    DC Liga De Supermascotas (2022) HD 1080p Latino

    1h 45m 2022

    Descargar DC Liga De Supermascotas (2022) HD 1080p Latino. Krypto el Superperro y Superman son amigos...

    Director: Sam Levine

    Género: Acción

    Actores: Yvette Nicole Brown

  • Rick and Morty (2022) Temporada 6 WEB-DL 1080p Latino

    Rick and Morty (2022) Temporada 6 WEB-DL 1080p Latino

    2013
    Rick and Morty (2022) Temporada 6 WEB-DL 1080p Latino

    0h 22m 2013

    Comedia animada que narra las aventuras de un científico loco Rick Sánchez, que regresa después de...

    Director: Justin Roiland

    Género: Action & Adventure

    Actores: Spencer Grammer

  • Tremors (1990) REMUX 4K HDR Latino – CMHDD

    Tremors (1990) REMUX 4K HDR Latino – CMHDD

    1990
    Tremors (1990) REMUX 4K HDR Latino – CMHDD

    1h 35m 1990

    En Perfección, un pequeño pueblo al borde del desierto de Nevada, algo parece suceder debajo de la...

    Director: Susan Bierbaum

    Género: Acción

    Actores: Victor Wong

descargar It Takes Two (1995) AMZN WEB-DL 1080p Latino WEBDL 1080p gratis, It Takes Two (1995) AMZN WEB-DL 1080p Latino WEBDL mega 1 link, It Takes Two (1995) AMZN WEB-DL 1080p Latino WEBDL pelicula completa, descargar It Takes Two (1995) AMZN WEB-DL 1080p Latino WEBDL gratis en mega.

It Takes Two (1995) AMZN WEB-DL 1080p Latino pelicula full hd, It Takes Two (1995) AMZN WEB-DL 1080p Latino mega latino, It Takes Two (1995) AMZN WEB-DL 1080p Latino 4k latino, It Takes Two (1995) AMZN WEB-DL 1080p Latino pelicula completa, It Takes Two (1995) AMZN WEB-DL 1080p Latino descargar gratis, descargar It Takes Two (1995) AMZN WEB-DL 1080p Latino pelicula latino, It Takes Two (1995) AMZN WEB-DL 1080p Latino 1 link mega, It Takes Two (1995) AMZN WEB-DL 1080p Latino 1 link google drive, It Takes Two (1995) AMZN WEB-DL 1080p Latino hd 1080p latino.
Comentarios 0