×

¿Problemas para descargar con Mozilla, EDGE? Deshabilita la opción "Abrir vinculos en una pestaña nueva" tal como lo muestra ésta imagen.

It: Capitulo Dos (2019) Full HD 1080p Latino

6.311 vistas

Información de It: Capitulo Dos (2019) Full HD 1080p Latino

Datos de la película

  • Calidad: Full 1080p
  • Audio: Se especifica abajo de la Sinopsis
  • Subtitulos: Español Latino PGS - Ingles PGS
  • Resolución: 1920x1080p
  • Formato: MKV
  • Codec: H.264
  • Encoder: CinefiloCool
  • Mediainfo: Clic para Mostrar Datos Ver
  • It Capitulo Dos (2019) Full HD 1080p Latino-CMHDD.mkv
    Format                      : Matroska
    Format version              : Version 4
    File size                   : 10.9 GiB
    Duration                    : 2 h 49 min
    Overall bit rate mode       : Variable
    Overall bit rate            : 9 200 kb/s
    Movie name                  : It Chapter Two (2019) CinemaniaHDD.Net
    Encoded date                : UTC 2019-12-02 11:33:09
    Writing application         : mkvmerge v38.0.0 ('The Silent Type') 64-bit
    Writing library             : libebml v1.3.9 + libmatroska v1.5.2
    Attachments                 : CINEMANIAHD.png

    Video
    ID                          : 1
    Format                      : AVC
    Format/Info                 : Advanced Video Codec
    Format profile              : High@L4.1
    Format settings             : CABAC / 4 Ref Frames
    Format settings, CABAC      : Yes
    Format settings, ReFrames   : 4 frames
    Codec ID                    : V_MPEG4/ISO/AVC
    Duration                    : 2 h 49 min
    Bit rate                    : 4 614 kb/s
    Width                       : 1 920 pixels
    Height                      : 1 080 pixels
    Display aspect ratio        : 16:9
    Frame rate mode             : Constant
    Frame rate                  : 23.976 (24000/1001) FPS
    Color space                 : YUV
    Chroma subsampling          : 4:2:0
    Bit depth                   : 8 bits
    Scan type                   : Progressive
    Bits/(Pixel*Frame)          : 0.093
    Stream size                 : 5.46 GiB (50%)
    Title                       : Full HD1080p [Bluray]
    Writing library             : x264 core 157 r2935 545de2f
    Encoding settings           : cabac=1 / ref=4 / deblock=1:0:0 / analyse=0x3:0x133 / me=tesa / subme=11 / psy=1 / psy_rd=1.00:0.00 / mixed_ref=1 / me_range=24 / chroma_me=1 / trellis=2 / 8x8dct=1 / cqm=0 / deadzone=21,11 / fast_pskip=0 / chroma_qp_offset=-2 / threads=34 / lookahead_threads=8 / sliced_threads=0 / nr=0 / decimate=1 / interlaced=0 / bluray_compat=0 / constrained_intra=0 / bframes=16 / b_pyramid=2 / b_adapt=2 / b_bias=0 / direct=3 / weightb=1 / open_gop=0 / weightp=2 / keyint=240 / keyint_min=24 / scenecut=40 / intra_refresh=0 / rc_lookahead=60 / rc=crf / mbtree=1 / crf=19.0 / qcomp=0.60 / qpmin=0 / qpmax=69 / qpstep=4 / vbv_maxrate=62500 / vbv_bufsize=78125 / crf_max=0.0 / nal_hrd=none / filler=0 / ip_ratio=1.40 / aq=1:1.00
    Default                     : Yes
    Forced                      : Yes
    Color range                 : Limited
    Color primaries             : BT.709
    Transfer characteristics    : BT.709
    Matrix coefficients         : BT.709

    Audio #1
    ID                          : 2
    Format                      : AC-3
    Format/Info                 : Audio Coding 3
    Commercial name             : Dolby Digital
    Codec ID                    : A_AC3
    Duration                    : 2 h 49 min
    Bit rate mode               : Constant
    Bit rate                    : 448 kb/s
    Channel(s)                  : 6 channels
    Channel layout              : L R C LFE Ls Rs
    Sampling rate               : 48.0 kHz
    Frame rate                  : 31.250 FPS (1536 SPF)
    Bit depth                   : 16 bits
    Compression mode            : Lossy
    Stream size                 : 543 MiB (5%)
    Title                       : AC3_5.1_Bluray_Esp
    Language                    : Spanish
    Service kind                : Complete Main
    Default                     : Yes
    Forced                      : Yes

    Audio #2
    ID                          : 3
    Format                      : MLP FBA 16-ch
    Format/Info                 : Meridian Lossless Packing FBA with 16-channel presentation
    Commercial name             : Dolby TrueHD with Dolby Atmos
    Codec ID                    : A_TRUEHD
    Duration                    : 2 h 49 min
    Bit rate mode               : Variable
    Bit rate                    : 3 408 kb/s
    Maximum bit rate            : 5 559 kb/s
    Channel(s)                  : 8 channels
    Channel layout              : L R C LFE Ls Rs Lb Rb
    Sampling rate               : 48.0 kHz
    Frame rate                  : 1 200.000 FPS (40 SPF)
    Compression mode            : Lossless
    Stream size                 : 4.03 GiB (37%)
    Title                       : THD_7.1_Bluray_Eng
    Language                    : English
    Default                     : No
    Forced                      : No
    Number of dynamic objects   : 15
    Bed channel count           : 1 channel
    Bed channel configuration   : LFE

    Audio #3
    ID                          : 4
    Format                      : AC-3
    Format/Info                 : Audio Coding 3
    Commercial name             : Dolby Digital
    Codec ID                    : A_AC3
    Duration                    : 2 h 49 min
    Bit rate mode               : Constant
    Bit rate                    : 640 kb/s
    Channel(s)                  : 6 channels
    Channel layout              : L R C LFE Ls Rs
    Sampling rate               : 48.0 kHz
    Frame rate                  : 31.250 FPS (1536 SPF)
    Bit depth                   : 16 bits
    Compression mode            : Lossy
    Stream size                 : 776 MiB (7%)
    Title                       : AC3_5.1_Bluray_Eng
    Language                    : English
    Service kind                : Complete Main
    Default                     : No
    Forced                      : No

    Text #1
    ID                          : 5
    Format                      : PGS
    Muxing mode                 : zlib
    Codec ID                    : S_HDMV/PGS
    Codec ID/Info               : Picture based subtitle format used on BDs/HD-DVDs
    Duration                    : 2 h 46 min
    Bit rate                    : 397 b/s
    Count of elements           : 60
    Stream size                 : 486 KiB (0%)
    Title                       : Sub_Forzados [PGS]
    Language                    : Spanish
    Default                     : Yes
    Forced                      : Yes

    Text #2
    ID                          : 6
    Format                      : PGS
    Muxing mode                 : zlib
    Codec ID                    : S_HDMV/PGS
    Codec ID/Info               : Picture based subtitle format used on BDs/HD-DVDs
    Duration                    : 2 h 48 min
    Bit rate                    : 29.0 kb/s
    Count of elements           : 4584
    Stream size                 : 35.0 MiB (0%)
    Title                       : Sub_Esp [PGS]
    Language                    : Spanish
    Default                     : No
    Forced                      : No

    Text #3
    ID                          : 7
    Format                      : PGS
    Muxing mode                 : zlib
    Codec ID                    : S_HDMV/PGS
    Codec ID/Info               : Picture based subtitle format used on BDs/HD-DVDs
    Duration                    : 2 h 44 min
    Bit rate                    : 36.4 kb/s
    Count of elements           : 5486
    Stream size                 : 42.8 MiB (0%)
    Title                       : Sub_Eng [PGS]
    Language                    : English
    Default                     : No
    Forced                      : No

    Text #4
    ID                          : 8
    Format                      : UTF-8
    Codec ID                    : S_TEXT/UTF8
    Codec ID/Info               : UTF-8 Plain Text
    Duration                    : 2 h 46 min
    Bit rate                    : 0 b/s
    Count of elements           : 30
    Stream size                 : 630 Bytes (0%)
    Title                       : Sub_Forzados
    Language                    : Spanish
    Default                     : No
    Forced                      : No

    Text #5
    ID                          : 9
    Format                      : UTF-8
    Codec ID                    : S_TEXT/UTF8
    Codec ID/Info               : UTF-8 Plain Text
    Duration                    : 2 h 48 min
    Bit rate                    : 48 b/s
    Count of elements           : 2291
    Stream size                 : 59.3 KiB (0%)
    Title                       : Sub_Esp
    Language                    : Spanish
    Default                     : No
    Forced                      : No

    Menu
    00:00:00.000                : en:Chapter 01
    00:09:10.341                : en:Chapter 02
    00:19:06.354                : en:Chapter 03
    00:27:00.744                : en:Chapter 04
    00:37:51.227                : en:Chapter 05
    00:46:19.986                : en:Chapter 06
    00:55:46.802                : en:Chapter 07
    01:05:36.474                : en:Chapter 08
    01:17:19.134                : en:Chapter 09
    01:29:21.565                : en:Chapter 10
    01:41:02.974                : en:Chapter 11
    01:49:11.336                : en:Chapter 12
    01:59:33.833                : en:Chapter 13
    02:05:31.774                : en:Chapter 14
    02:14:25.933                : en:Chapter 15
    02:22:43.889                : en:Chapter 16
    02:32:57.168                : en:Chapter 17
    02:42:15.643                : en:Chapter 18
    02:44:52.508                : en:Chapter 19

  • Peso: 10.9 GiB

Sinopsis

Descargar It: Capitulo Dos (2019) Full HD 1080p Latino. Han pasado casi 30 años desde que el «Club de los Perdedores», formado por Bill, Berverly, Richie, Ben, Eddie, Mike y Stanley, se enfrentaran al macabro y despiadado Pennywise (Bill Skarsgård). En cuanto tuvieron oportunidad, abandonaron el pueblo de Derry, en el estado de Maine, que tantos problemas les había ocasionado. Sin embargo, ahora, siendo adultos, parece que no pueden escapar de su pasado. Todos deberán enfrentarse de nuevo al temible payaso para descubrir si de verdad están preparados para superar sus traumas de la infancia.

Audio Español Latino AC3 5.1 Bluray – Ingles TrueHD 7.1 + AC3 5.1 Bluray

Ficha técnica

Video trailer de la película

Enlaces de descarga

Rip de Bluray

Descargar It: Capitulo Dos (2019) Full HD 1080p Latino




Aportes de DPeliculasHDmega la pass es:dpeliculashdmega.org Aportes de CinemaniaHD la pass es:cinemaniahdd.com

Películas relacionadas

descargar It: Capitulo Dos (2019) Full HD 1080p Latino Full 1080p 1080p gratis, It: Capitulo Dos (2019) Full HD 1080p Latino Full 1080p mega 1 link, It: Capitulo Dos (2019) Full HD 1080p Latino Full 1080p pelicula completa, descargar It: Capitulo Dos (2019) Full HD 1080p Latino Full 1080p gratis en mega.

It: Capitulo Dos (2019) Full HD 1080p Latino pelicula full hd, It: Capitulo Dos (2019) Full HD 1080p Latino mega latino, It: Capitulo Dos (2019) Full HD 1080p Latino 4k latino, It: Capitulo Dos (2019) Full HD 1080p Latino pelicula completa, It: Capitulo Dos (2019) Full HD 1080p Latino descargar gratis, descargar It: Capitulo Dos (2019) Full HD 1080p Latino pelicula latino, It: Capitulo Dos (2019) Full HD 1080p Latino 1 link mega, It: Capitulo Dos (2019) Full HD 1080p Latino 1 link google drive, It: Capitulo Dos (2019) Full HD 1080p Latino hd 1080p latino.
Comentarios 1
  • Octavio Cesar posadas Martinez - 03 diciembre, 2019

    Gracias por It capitulo 2 con audio TrueHD 7.1 ch, saludos