×

¿Problemas para descargar con Mozilla, EDGE? Deshabilita la opción "Abrir vinculos en una pestaña nueva" tal como lo muestra ésta imagen.

It. Capítulo dos (2019) WEB-DL 1080p Latino

3.548 vistas

Información de It. Capítulo dos (2019) WEB-DL 1080p Latino

Datos de la película

  • Calidad: WEBDL
  • Audio: Español Latino AC3 5.1 iTunes - Ingles AC3 5.1 iTunes
  • Subtitulos: Español Latino SRT- FORZADOS SRT
  • Resolución: 1920x800
  • Formato: MKV
  • Codec: H.264
  • Encoder: cinemaniahdd
  • Mediainfo: Clic para Mostrar Datos Ver
  • It. Capítulo dos (2019) WEB-DL 1080p Latino.mkv
    Format                      : Matroska
    Format version              : Version 4
    File size                   : 6.30 GiB
    Duration                    : 2 h 49 min
    Overall bit rate            : 5 325 kb/s
    Movie name                  : It. Capítulo dos (2019) - CinemaniaHDD.Net
    Encoded date                : UTC 2019-11-19 01:37:27
    Writing application         : mkvmerge v38.0.0 ('The Silent Type') 64-bit
    Writing library             : libebml v1.3.9 + libmatroska v1.5.2

    Video
    ID                          : 1
    Format                      : AVC
    Format/Info                 : Advanced Video Codec
    Format profile              : High@L4
    Format settings             : CABAC / 5 Ref Frames
    Format settings, CABAC      : Yes
    Format settings, ReFrames   : 5 frames
    Codec ID                    : V_MPEG4/ISO/AVC
    Duration                    : 2 h 49 min
    Bit rate                    : 4 555 kb/s
    Width                       : 1 920 pixels
    Height                      : 804 pixels
    Display aspect ratio        : 2.40:1
    Frame rate mode             : Constant
    Frame rate                  : 23.976 (24000/1001) FPS
    Color space                 : YUV
    Chroma subsampling          : 4:2:0
    Bit depth                   : 8 bits
    Scan type                   : Progressive
    Bits/(Pixel*Frame)          : 0.123
    Stream size                 : 5.39 GiB (86%)
    Title                       : CinemaniaHDD
    Language                    : English
    Default                     : Yes
    Forced                      : No
    Color range                 : Limited
    Color primaries             : BT.709
    Transfer characteristics    : BT.709
    Matrix coefficients         : BT.709

    Audio #1
    ID                          : 2
    Format                      : AC-3
    Format/Info                 : Audio Coding 3
    Commercial name             : Dolby Digital
    Codec ID                    : A_AC3
    Duration                    : 2 h 49 min
    Bit rate mode               : Constant
    Bit rate                    : 384 kb/s
    Channel(s)                  : 6 channels
    Channel layout              : L R C LFE Ls Rs
    Sampling rate               : 48.0 kHz
    Frame rate                  : 31.250 FPS (1536 SPF)
    Bit depth                   : 16 bits
    Compression mode            : Lossy
    Stream size                 : 465 MiB (7%)
    Title                       : Español latino [CinemaniaHDD]
    Language                    : Spanish
    Service kind                : Complete Main
    Default                     : Yes
    Forced                      : No

    Audio #2
    ID                          : 3
    Format                      : AC-3
    Format/Info                 : Audio Coding 3
    Commercial name             : Dolby Digital
    Codec ID                    : A_AC3
    Duration                    : 2 h 49 min
    Bit rate mode               : Constant
    Bit rate                    : 384 kb/s
    Channel(s)                  : 6 channels
    Channel layout              : L R C LFE Ls Rs
    Sampling rate               : 48.0 kHz
    Frame rate                  : 31.250 FPS (1536 SPF)
    Bit depth                   : 16 bits
    Compression mode            : Lossy
    Stream size                 : 465 MiB (7%)
    Title                       : Inglés [CinemaniaHDD]
    Language                    : English
    Service kind                : Complete Main
    Default                     : No
    Forced                      : No

    Text #1
    ID                          : 4
    Format                      : UTF-8
    Codec ID                    : S_TEXT/UTF8
    Codec ID/Info               : UTF-8 Plain Text
    Duration                    : 2 h 46 min
    Bit rate                    : 0 b/s
    Count of elements           : 30
    Stream size                 : 630 Bytes (0%)
    Title                       : Forzados [CinemaniaHDD]
    Language                    : Spanish
    Default                     : Yes
    Forced                      : Yes

    Text #2
    ID                          : 5
    Format                      : UTF-8
    Codec ID                    : S_TEXT/UTF8
    Codec ID/Info               : UTF-8 Plain Text
    Duration                    : 2 h 48 min
    Bit rate                    : 48 b/s
    Count of elements           : 2292
    Stream size                 : 59.3 KiB (0%)
    Title                       : Español latino [CinemaniaHDD]
    Language                    : Spanish
    Default                     : No
    Forced                      : No

     

  • Peso: 6.30 GiB

Sinopsis

Han pasado casi 30 años desde que el «Club de los Perdedores», formado por Bill, Berverly, Richie, Ben, Eddie, Mike y Stanley, se enfrentaran al macabro y despiadado Pennywise (Bill Skarsgård). En cuanto tuvieron oportunidad, abandonaron el pueblo de Derry, en el estado de Maine, que tantos problemas les había ocasionado. Sin embargo, ahora, siendo adultos, parece que no pueden escapar de su pasado. Todos deberán enfrentarse de nuevo al temible payaso para descubrir si de verdad están preparados para superar sus traumas de la infancia.

Ficha técnica

Video trailer de la película

Enlaces de descarga

Rip de Bluray

Descargar It. Capítulo dos (2019) WEB-DL 1080p Latino




Aportes de DPeliculasHDmega la pass es:dpeliculashdmega.org Aportes de CinemaniaHD la pass es:cinemaniahdd.com
Guardado en : Terror

Películas relacionadas

  • M3GAN (2023) AMZN WEB-DL 4K UHD HDR Latino

    M3GAN (2023) AMZN WEB-DL 4K UHD HDR Latino

    2022
    M3GAN (2023) AMZN WEB-DL 4K UHD HDR Latino

    1h 42m 2022

    Descargar M3GAN (2023) AMZN WEB-DL 4K UHD HDR Latino. Cuando Gemma se convierte en la cuidadora de su...

    Director: Stephen W. Moore

    Género: 4K HDR

    Actores: Violet McGraw

  • M3GAN (2022) MA WEB-DL 1080p Latino

    M3GAN (2022) MA WEB-DL 1080p Latino

    2022
    M3GAN (2022) MA WEB-DL 1080p Latino

    1h 42m 2022

    Descargar M3GAN (2022) MA WEB-DL 1080p Latino. Cuando Gemma se convierte en la cuidadora de su sobrina...

    Director: Stephen W. Moore

    Género: Ciencia ficción

    Actores: Violet McGraw

  • Mar de sangre (2022) WEB-DL 1080p Latino

    Mar de sangre (2022) WEB-DL 1080p Latino

    2022
    Mar de sangre (2022) WEB-DL 1080p Latino

    1h 27m 2022

    Descargar Mar de sangre (2022) WEB-DL 1080p Latino. Un grupo de amigos que disfrutan de un fin de semana...

    Director: James Nunn

    Género: Acción

    Actores: Thomas Michael Flynn

descargar It. Capítulo dos (2019) WEB-DL 1080p Latino WEBDL 1080p gratis, It. Capítulo dos (2019) WEB-DL 1080p Latino WEBDL mega 1 link, It. Capítulo dos (2019) WEB-DL 1080p Latino WEBDL pelicula completa, descargar It. Capítulo dos (2019) WEB-DL 1080p Latino WEBDL gratis en mega.

It. Capítulo dos (2019) WEB-DL 1080p Latino pelicula full hd, It. Capítulo dos (2019) WEB-DL 1080p Latino mega latino, It. Capítulo dos (2019) WEB-DL 1080p Latino 4k latino, It. Capítulo dos (2019) WEB-DL 1080p Latino pelicula completa, It. Capítulo dos (2019) WEB-DL 1080p Latino descargar gratis, descargar It. Capítulo dos (2019) WEB-DL 1080p Latino pelicula latino, It. Capítulo dos (2019) WEB-DL 1080p Latino 1 link mega, It. Capítulo dos (2019) WEB-DL 1080p Latino 1 link google drive, It. Capítulo dos (2019) WEB-DL 1080p Latino hd 1080p latino.
Comentarios 7
  • Matias - 19 noviembre, 2019

    Gracias !!!

  • elRuma - 19 noviembre, 2019

    exliquen lo onedrive………gracias

    • CinemaniaHDD - 19 noviembre, 2019

      Hola.
      Cuando ya lleges a la carpeta de ONEDRIVE. lo que tienes que hacer es descargar todos los archivos alli dentro de esa carpeta.
      dandole clic al nombre del archivo o dandole clic a la opcion descargar cuando se desgloza al darle clic a los 3 puntitos de cada archivo seleccionado.

      https://subefotos.com/ver/?8b672b5d039383dbd15d531b520944cao.jpg

      • gerrard - 19 noviembre, 2019

        Ya lo hice pero me dice que la pagina no esta disponible temporalmente, se ha caído el servidor quizá…

        • CinemaniaHDD - 19 noviembre, 2019

          SI. ya llegaste tarde, este servidor es como googledrive: te deja descargar Ilimitadamente pero tiene un contador de minimos de descarga por archivo.
          Asi que ya esta en reposo. o compra VIP que alli la subimos en un link y ya esta lista para verse online
          la opcion googledrive 2 esta online aprovecha antes que limite xD

  • gerrard - 18 noviembre, 2019

    Saludos, como se descarga desde One drive? El enlace me lleva a otro sitio y no me muestra los enlaces como tal,

    • CinemaniaHDD - 18 noviembre, 2019

      Hola, pasa los acortadores y al final te dara el link de la carpeta ONEDRIVE