×

¿Problemas para descargar con Mozilla, EDGE? Deshabilita la opción "Abrir vinculos en una pestaña nueva" tal como lo muestra ésta imagen.

It. Capítulo dos (2019) AMZN WEB-DL 1080p Latino

4.012 vistas

Información de It. Capítulo dos (2019) AMZN WEB-DL 1080p Latino

Datos de la película

  • Calidad: WEBDL
  • Audio: Se especifica abajo de la Sinopsis
  • Subtitulos: Español Latino SRT- FORZADOS SRT
  • Resolución: 1920x1080
  • Formato: MKV
  • Codec: H.264
  • Encoder: cinemaniahdd
  • Mediainfo: Clic para Mostrar Datos Ver
  • It. Capítulo dos (2019) AMZN WEB-DL 1080p Latino.mkv
    Format                      : Matroska
    Format version              : Version 4
    File size                   : 9.89 GiB
    Duration                    : 2 h 49 min
    Overall bit rate            : 8 358 kb/s
    Movie name                  : It. Capítulo dos (2019) - CinemaniaHDD.Net
    Encoded date                : UTC 2019-11-19 16:44:42
    Writing application         : mkvmerge v38.0.0 ('The Silent Type') 64-bit
    Writing library             : libebml v1.3.9 + libmatroska v1.5.2

    Video
    ID                          : 1
    Format                      : AVC
    Format/Info                 : Advanced Video Codec
    Format profile              : High@L4
    Format settings             : CABAC / 4 Ref Frames
    Format settings, CABAC      : Yes
    Format settings, ReFrames   : 4 frames
    Codec ID                    : V_MPEG4/ISO/AVC
    Duration                    : 2 h 49 min
    Bit rate mode               : Constant
    Bit rate                    : 7 332 kb/s
    Nominal bit rate            : 10 000 kb/s
    Width                       : 1 920 pixels
    Height                      : 800 pixels
    Display aspect ratio        : 2.40:1
    Frame rate mode             : Constant
    Frame rate                  : 23.976 (24000/1001) FPS
    Color space                 : YUV
    Chroma subsampling          : 4:2:0
    Bit depth                   : 8 bits
    Scan type                   : Progressive
    Bits/(Pixel*Frame)          : 0.199
    Stream size                 : 8.67 GiB (88%)
    Title                       : CinemaniaHDD
    Default                     : Yes
    Forced                      : No
    Color range                 : Limited
    Color primaries             : BT.709
    Transfer characteristics    : BT.709
    Matrix coefficients         : BT.709

    Audio #1
    ID                          : 2
    Format                      : AC-3
    Format/Info                 : Audio Coding 3
    Commercial name             : Dolby Digital
    Codec ID                    : A_AC3
    Duration                    : 2 h 49 min
    Bit rate mode               : Constant
    Bit rate                    : 384 kb/s
    Channel(s)                  : 6 channels
    Channel layout              : L R C LFE Ls Rs
    Sampling rate               : 48.0 kHz
    Frame rate                  : 31.250 FPS (1536 SPF)
    Bit depth                   : 16 bits
    Compression mode            : Lossy
    Delay relative to video     : 3 ms
    Stream size                 : 465 MiB (5%)
    Title                       : Español latino [CinemaniaHDD]
    Language                    : Spanish
    Service kind                : Complete Main
    Default                     : Yes
    Forced                      : No

    Audio #2
    ID                          : 3
    Format                      : E-AC-3
    Format/Info                 : Enhanced AC-3
    Commercial name             : Dolby Digital Plus
    Codec ID                    : A_EAC3
    Duration                    : 2 h 49 min
    Bit rate mode               : Constant
    Bit rate                    : 640 kb/s
    Channel(s)                  : 6 channels
    Channel layout              : L R C LFE Ls Rs
    Sampling rate               : 48.0 kHz
    Frame rate                  : 31.250 FPS (1536 SPF)
    Compression mode            : Lossy
    Stream size                 : 775 MiB (8%)
    Title                       : Inglés [CinemaniaHDD]
    Language                    : English
    Service kind                : Complete Main
    Default                     : No
    Forced                      : No

    Text #1
    ID                          : 4
    Format                      : UTF-8
    Codec ID                    : S_TEXT/UTF8
    Codec ID/Info               : UTF-8 Plain Text
    Duration                    : 2 h 46 min
    Bit rate                    : 0 b/s
    Count of elements           : 30
    Stream size                 : 630 Bytes (0%)
    Title                       : Forzados [CinemaniaHDD]
    Language                    : Spanish
    Default                     : Yes
    Forced                      : Yes

    Text #2
    ID                          : 5
    Format                      : UTF-8
    Codec ID                    : S_TEXT/UTF8
    Codec ID/Info               : UTF-8 Plain Text
    Duration                    : 2 h 48 min
    Bit rate                    : 48 b/s
    Count of elements           : 2292
    Stream size                 : 59.3 KiB (0%)
    Title                       : Español latino [CinemaniaHDD]
    Language                    : Spanish
    Default                     : No
    Forced                      : No

    Text #3
    ID                          : 6
    Format                      : UTF-8
    Codec ID                    : S_TEXT/UTF8
    Codec ID/Info               : UTF-8 Plain Text
    Duration                    : 2 h 44 min
    Bit rate                    : 59 b/s
    Count of elements           : 2828
    Stream size                 : 71.5 KiB (0%)
    Title                       : Inglés [CinemaniaHDD]
    Language                    : English
    Default                     : No
    Forced                      : No

    Menu
    00:00:00.000                : en:Studio Logos
    00:00:21.000                : en:September 1989
    00:02:15.000                : en:Derry Carnival
    00:07:32.000                : en:It Comes Back
    00:08:55.000                : en:Title Sequence
    00:09:08.000                : en:Bill on Set
    00:11:50.000                : en:Eddie Speeds
    00:12:54.000                : en:Richie on Stage
    00:14:27.000                : en:Hanscom & Associates
    00:15:44.000                : en:Stanley's Bath
    00:18:51.000                : en:Beverly's Husband
    00:22:21.000                : en:Henry's Return
    00:26:00.000                : en:Jade of the Orient
    00:30:27.000                : en:Fortune Cookies
    00:36:53.000                : en:Eddie's Fan
    00:39:58.000                : en:Firefly
    00:43:30.000                : en:Jailbreak
    00:44:20.000                : en:Beverly Shares a Revelation
    00:46:07.000                : en:Chudd
    00:51:36.000                : en:Dead Lights
    00:54:23.000                : en:Barrens Club House
    01:01:26.000                : en:Token Hunting
    01:03:04.000                : en:Beverly's Home
    01:08:59.000                : en:Tea Time
    01:12:25.000                : en:Richie's Secret
    01:16:58.000                : en:Silver
    01:19:20.000                : en:A Warning
    01:24:38.000                : en:Summer School
    01:29:20.000                : en:January Embers
    01:31:28.000                : en:Prescription
    01:38:03.000                : en:First Kiss
    01:40:59.000                : en:Bowers
    01:43:09.000                : en:Fun House
    01:46:32.000                : en:Bar Mitzvah
    01:49:10.000                : en:Fire
    01:52:25.000                : en:Neibolt Street
    01:59:32.000                : en:Into the Sewers
    02:04:14.000                : en:Ritual
    02:13:39.000                : en:Split Up
    02:22:36.000                : en:If You Believe
    02:27:41.000                : en:Clown
    02:35:16.000                : en:Swimmng
    02:40:02.000                : en:Stanley's Message
    02:44:50.000                : en:End Credits

     

  • Peso: 9.89 GiB

Sinopsis

Han pasado casi 30 años desde que el «Club de los Perdedores», formado por Bill, Berverly, Richie, Ben, Eddie, Mike y Stanley, se enfrentaran al macabro y despiadado Pennywise (Bill Skarsgård). En cuanto tuvieron oportunidad, abandonaron el pueblo de Derry, en el estado de Maine, que tantos problemas les había ocasionado. Sin embargo, ahora, siendo adultos, parece que no pueden escapar de su pasado. Todos deberán enfrentarse de nuevo al temible payaso para descubrir si de verdad están preparados para superar sus traumas de la infancia.

Español Latino AC3 5.1 iTunes – Ingles E-AC3 5.1 AMAZON

Ficha técnica

Video trailer de la película

Enlaces de descarga

Rip de Bluray

Descargar It. Capítulo dos (2019) AMZN WEB-DL 1080p Latino




Aportes de DPeliculasHDmega la pass es:dpeliculashdmega.org Aportes de CinemaniaHD la pass es:cinemaniahdd.com
Guardado en : Terror

Películas relacionadas

  • M3GAN (2023) AMZN WEB-DL 4K UHD HDR Latino

    M3GAN (2023) AMZN WEB-DL 4K UHD HDR Latino

    2022
    M3GAN (2023) AMZN WEB-DL 4K UHD HDR Latino

    1h 42m 2022

    Descargar M3GAN (2023) AMZN WEB-DL 4K UHD HDR Latino. Cuando Gemma se convierte en la cuidadora de su...

    Director: Stephen W. Moore

    Género: 4K HDR

    Actores: Violet McGraw

  • M3GAN (2022) MA WEB-DL 1080p Latino

    M3GAN (2022) MA WEB-DL 1080p Latino

    2022
    M3GAN (2022) MA WEB-DL 1080p Latino

    1h 42m 2022

    Descargar M3GAN (2022) MA WEB-DL 1080p Latino. Cuando Gemma se convierte en la cuidadora de su sobrina...

    Director: Stephen W. Moore

    Género: Ciencia ficción

    Actores: Violet McGraw

  • Mar de sangre (2022) WEB-DL 1080p Latino

    Mar de sangre (2022) WEB-DL 1080p Latino

    2022
    Mar de sangre (2022) WEB-DL 1080p Latino

    1h 27m 2022

    Descargar Mar de sangre (2022) WEB-DL 1080p Latino. Un grupo de amigos que disfrutan de un fin de semana...

    Director: James Nunn

    Género: Acción

    Actores: Thomas Michael Flynn

descargar It. Capítulo dos (2019) AMZN WEB-DL 1080p Latino WEBDL 1080p gratis, It. Capítulo dos (2019) AMZN WEB-DL 1080p Latino WEBDL mega 1 link, It. Capítulo dos (2019) AMZN WEB-DL 1080p Latino WEBDL pelicula completa, descargar It. Capítulo dos (2019) AMZN WEB-DL 1080p Latino WEBDL gratis en mega.

It. Capítulo dos (2019) AMZN WEB-DL 1080p Latino pelicula full hd, It. Capítulo dos (2019) AMZN WEB-DL 1080p Latino mega latino, It. Capítulo dos (2019) AMZN WEB-DL 1080p Latino 4k latino, It. Capítulo dos (2019) AMZN WEB-DL 1080p Latino pelicula completa, It. Capítulo dos (2019) AMZN WEB-DL 1080p Latino descargar gratis, descargar It. Capítulo dos (2019) AMZN WEB-DL 1080p Latino pelicula latino, It. Capítulo dos (2019) AMZN WEB-DL 1080p Latino 1 link mega, It. Capítulo dos (2019) AMZN WEB-DL 1080p Latino 1 link google drive, It. Capítulo dos (2019) AMZN WEB-DL 1080p Latino hd 1080p latino.
Comentarios 0